找回密码

蓝光电影网

查看: 58|回复: 0

[剧情] 天與地 Heaven.and.Earth.1994.CHINESE.1080p.BluRay.x264-SCRIPT 11.89GB

[复制链接]
蓝光币
623
发表于 2020-11-5 09:03:00 | 显示全部楼层 |阅读模式


◎译  名 天与地/Tian Di
◎片  名 天與地
◎年  代 1994
◎产  地 中国香港,美国
◎类  别 剧情
◎语  言 粤语,汉语普通话
◎上映日期 1994-07-21(中国香港)
◎IMDb评分  6.1/10 from 154 users
◎IMDb链接  https://www.imdb.com/title/tt0111423/
◎豆瓣评分 7.2/10 from 5471 users
◎豆瓣链接 https://movie.douban.com/subject/1305829/
◎片  长 Germany: 96 分钟(cut version)
◎导  演 黎大炜 David Lai
◎编  剧 陈子慧 Che Wei Chan
◎主  演 刘德华 Andy Lau
       刘松仁 Damian Lau
       陈少霞 Cherie Chan
       顾宝明 Pao-Ming Ku
       金士杰 Shih-Chieh King
       俞飞鸿 Faye Yu
◎标  签 刘德华 | 香港 | 香港电影 | 行动 | 犯罪 | 1994 | 刘松仁 | 警匪
◎简  介


  得一笔奖学金帮助,张一鹏(刘德华)获得去法国留学进修的机遇,学成归国后,他被录用为上海市禁烟(雅片)行动的第一专员。
  
  张在法经西方文化与代价观陶冶,非常墨客意气,刚携妻子(陈少霞)来到上海,便展开一系列行动,不知中国与西方国家国情有别,难有健全的法令系统及社会次序:差人署长倪坤(顾宝明)和大毒枭戴济民(刘松仁)是换帖兄弟,两人一路控制着包括销售雅片在内的上海一切的不法买卖,见数次向张行贿无果,他们发毒誓要让张生不如死。
◎获奖情况
  第14届香港电影金像奖 ?(1995)
  最好原创电影歌曲(提名) 刘德华
  1. Video
  2. ID                                       : 1
  3. Format                                   : AVC
  4. Format/Info                              : Advanced Video Codec
  5. Format profile                           : [email protected]
  6. Format settings                          : CABAC / 4 Ref Frames
  7. Format settings, CABAC                   : Yes
  8. Format settings, Reference frames        : 4 frames
  9. Codec ID                                 : V_MPEG4/ISO/AVC
  10. Duration                                 : 1 h 44 min
  11. Bit rate                                 : 15.3 Mb/s
  12. Width                                    : 1 920 pixels
  13. Height                                   : 1 080 pixels
  14. Display aspect ratio                     : 16:9
  15. Frame rate mode                          : Constant
  16. Frame rate                               : 24.000 FPS
  17. Color space                              : YUV
  18. Chroma subsampling                       : 4:2:0
  19. Bit depth                                : 8 bits
  20. Scan type                                : Progressive
  21. Bits/(Pixel*Frame)                       : 0.308
  22. Stream size                              : 11.1 GiB (94%)
  23. Writing library                          : x264 core 161 r3027+52M 541aa21 devel [(8 & 10)[email protected] X86_64]
  24. Encoding settings                        : cabac=1 / ref=4 / deblock=1:-3:-3 / analyse=0x3:0x133 / me=umh / subme=11 / psy=1 / fade_compensate=0.00 / psy_rd=1.00:0.00 / mixed_ref=1 / me_range=64 / chroma_me=1 / trellis=2 / 8x8dct=1 / cqm=0 / deadzone=21,11 / fast_pskip=0 / chroma_qp_offset=-2 / threads=34 / lookahead_threads=8 / sliced_threads=0 / nr=0 / decimate=0 / interlaced=0 / bluray_compat=0 / constrained_intra=0 / fgo=0 / bframes=16 / b_pyramid=2 / b_adapt=2 / b_bias=0 / direct=3 / weightb=1 / open_gop=0 / weightp=2 / keyint=250 / keyint_min=24 / scenecut=40 / intra_refresh=0 / rc=crf / mbtree=0 / crf=19.2000 / qcomp=0.60 / qpmin=0:0:0 / qpmax=69:69:69 / qpstep=4 / ip_ratio=1.40 / pb_ratio=1.30 / aq=3:0.80 / aq-sensitivity=10.00 / aq-factor=1.00:1.00:1.00 / aq2=0 / aq3=0
  25. Default                                  : Yes
  26. Forced                                   : No
  27. Color range                              : Limited
  28. Color primaries                          : BT.709
  29. Transfer characteristics                 : BT.709
  30. Matrix coefficients                      : BT.709
  31. Audio
  32. ID                                       : 2
  33. Format                                   : E-AC-3
  34. Format/Info                              : Enhanced AC-3
  35. Commercial name                          : Dolby Digital Plus
  36. Codec ID                                 : A_EAC3
  37. Duration                                 : 1 h 44 min
  38. Bit rate mode                            : Constant
  39. Bit rate                                 : 1 024 kb/s
  40. Channel(s)                               : 6 channels
  41. Channel layout                           : L R C LFE Ls Rs
  42. Sampling rate                            : 48.0 kHz
  43. Frame rate                               : 62.500 FPS (768 SPF)
  44. Compression mode                         : Lossy
  45. Stream size                              : 762 MiB (6%)
  46. Language                                 : Chinese
  47. Service kind                             : Complete Main
  48. Default                                  : Yes
  49. Forced                                   : No
  50. Text #1
  51. ID                                       : 3
  52. Format                                   : UTF-8
  53. Codec ID                                 : S_TEXT/UTF8
  54. Codec ID/Info                            : UTF-8 Plain Text
  55. Duration                                 : 1 h 41 min
  56. Bit rate                                 : 37 b/s
  57. Count of elements                        : 1072
  58. Stream size                              : 27.7 KiB (0%)
  59. Language                                 : English
  60. Default                                  : Yes
  61. Forced                                   : No
  62. Text #2
  63. ID                                       : 4
  64. Format                                   : PGS
  65. Muxing mode                              : zlib
  66. Codec ID                                 : S_HDMV/PGS
  67. Codec ID/Info                            : Picture based subtitle format used on BDs/HD-DVDs
  68. Duration                                 : 1 h 41 min
  69. Bit rate                                 : 29.3 kb/s
  70. Count of elements                        : 2143
  71. Stream size                              : 21.3 MiB (0%)
  72. Language                                 : English
  73. Default                                  : No
  74. Forced                                   : No
  75. Menu
  76. 00:00:00.000                             : en:Chapter 01
  77. 00:08:28.667                             : en:Chapter 02
  78. 00:16:37.083                             : en:Chapter 03
  79. 00:25:12.167                             : en:Chapter 04
  80. 00:33:40.000                             : en:Chapter 05
  81. 00:42:39.125                             : en:Chapter 06
  82. 00:52:03.625                             : en:Chapter 07
  83. 01:00:38.125                             : en:Chapter 08
  84. 01:07:57.792                             : en:Chapter 09
  85. 01:17:15.125                             : en:Chapter 10
  86. 01:26:59.583                             : en:Chapter 11
  87. 01:34:16.875                             : en:Chapter 12
复制代码






                                       
                                       

                                       
                                       
                                       




回复

使用道具 举报

懒得打字嘛,点击右侧快捷回复 【右侧内容,后台自定义】
您需要登录后才可以回帖 登录 | 立即加入

本版积分规则

Archiver|小黑屋| 蓝光电影网 |网站地图

Copyright © 2021 Comsenz Inc. Powered by 蓝光电影网

蓝光电影网

本站内容由用户自主分享和转载自互联网,转载目的在于传递更多信息,并不代表本网赞同其观点和对其真实性负责。

如有侵权、违反国家法律政策行为,请联系我们,我们会第一时间及时清除和处理!

举报反馈邮箱:[email protected]

快速回复 返回顶部 返回列表