找回密码

蓝光电影网

查看: 12|回复: 0

[剧情] 爱情达阵/傻瓜 Leatherheads.2008.1080p.BluRay.x264.DD5.1-FGT 7.95GB

[复制链接]
蓝光币
511
发表于 2020-11-5 09:01:18 | 显示全部楼层 |阅读模式


◎译  名 恋爱达阵/傻瓜/恋爱决胜分
◎片  名 Leatherheads
◎年  代 2008
◎产  地 美国,德国
◎类  别 剧情 / 笑剧 / 恋爱 / 活动
◎语  言 英语
◎上映日期 2008-04-04
◎IMDb评分  6/10 from 30832 users
◎IMDb链接  https://www.imdb.com/title/tt0379865/
◎豆瓣评分 6.6/10 from 2007 users
◎豆瓣链接 https://movie.douban.com/subject/1905788/
◎片  长 114 分钟
◎导  演 乔治·克鲁尼 George Clooney
◎编  剧 里克·雷利 Rick Reilly
◎主  演 乔治·克鲁尼 George Clooney
       蕾妮·齐薇格 Renée Zellweger
       约翰·卡拉辛斯基 John Krasinski
       斯蒂芬·鲁特 Stephen Root
       韦恩·杜瓦尔 Wayne Duvall
       Jerry Cashman
       Don Calhoun
       Tom Huff
       Kevin Woods
       Jason Drago
       大卫·帕斯奎斯 David Pasquesi
       Tom Glynn
       海瑟·戈尔登赫什 Heather Goldenhersh
       Zack Kay
       彼得·格雷蒂 Peter Gerety
       罗伯特·贝克尔 Robert Baker
       马克斯·凯塞拉 Max Casella
       迈克·奥麦利 Mike O'Malley
       格兰特·赫斯洛夫 Grant Heslov
       兰迪·纽曼 Randy Newman
       Trey Moore
       克里斯蒂安·斯托特 Christian Stolte
       汤米·欣克利 Tommy Hinkley
       乔纳森·普雷斯 Jonathan Pryce
       JD·库鲁姆 JD Cullum
       大卫·德弗里斯 David de Vries
       Mark Teich
       马特·布谢尔 Matt Bushell
       Sandra W. Van Natta
       Craig S. Harper
       罗恩·克林顿·史姑娘 Ron Clinton Smith
       杰克·汤普森 Jack Thompson
       玛丽安·塞尔德斯 Marian Seldes
       杰雷米·拉特福德 Jeremy Ratchford
       Ryan Shively
       Nick Paonessa
       约翰·麦康奈尔 John McConnell
       Dave Hager
       Robert Hy Gorman
       布莱克·克拉克 Blake Clark
◎标  签 美国 | 笑剧 | GerogeClooney | 恋爱 | RenéeZellweger | 美国电影 | 2008 | 我看过的电影
◎简  介


  道奇(乔治·克鲁尼 George Clooney 饰)所率领的橄榄球队由于投资方拒绝继续援助而面临着被迫闭幕的了局,为了自己挚爱的橄榄球活动,也为了一同流血流汗的队友们,道奇必须想出处理的法子。大学橄榄球明星卡特(约翰·卡拉辛斯基 John Krasinski 饰)的出现吸引了道奇的留意,一个绝妙的留意应运而生。
  
  道奇将卡特归入了队中,操纵其明星效应成功的吸引了公众的眼光。卡特的履历表上写满了他的豪杰业绩,已经凭仗一人气力让众多德军缴械投诚的业绩也频频被人提起。可是,对于消息记者莱西(芮妮·齐薇格 Renée Zellweger 饰)来说,卡特的历史布满了疑点。为了查明真相,莱西想方想法的接近了卡特,没想到,她的美貌和美丽却在橄榄球队中掀起了轩然大波。
  1. Video
  2. ID                                       : 1
  3. Format                                   : AVC
  4. Format/Info                              : Advanced Video Codec
  5. Format profile                           : [email protected]
  6. Format settings                          : CABAC / 5 Ref Frames
  7. Format settings, CABAC                   : Yes
  8. Format settings, Reference frames        : 5 frames
  9. Codec ID                                 : V_MPEG4/ISO/AVC
  10. Duration                                 : 1 h 53 min
  11. Bit rate                                 : 9 360 kb/s
  12. Width                                    : 1 920 pixels
  13. Height                                   : 1 040 pixels
  14. Display aspect ratio                     : 1.85:1
  15. Frame rate mode                          : Constant
  16. Frame rate                               : 23.976 FPS
  17. Color space                              : YUV
  18. Chroma subsampling                       : 4:2:0
  19. Bit depth                                : 8 bits
  20. Scan type                                : Progressive
  21. Bits/(Pixel*Frame)                       : 0.196
  22. Stream size                              : 7.28 GiB (92%)
  23. Writing library                          : x264 core 61 r957M 7ce0f2c
  24. Encoding settings                        : cabac=1 / ref=5 / deblock=1:0:0 / analyse=0x3:0x2 / me=umh / subme=7 / psy_rd=1.0:1.0 / brdo=1 / mixed_ref=1 / me_range=16 / chroma_me=1 / trellis=1 / 8x8dct=1 / cqm=2 / deadzone=21,11 / chroma_qp_offset=-4 / threads=16 / nr=0 / decimate=1 / mbaff=0 / bframes=3 / b_pyramid=1 / b_adapt=1 / b_bias=0 / direct=1 / wpredb=1 / bime=1 / keyint=250 / keyint_min=25 / scenecut=40(pre) / rc=2pass / bitrate=9360 / ratetol=1.0 / qcomp=1.00 / qpmin=10 / qpmax=51 / qpstep=4 / cplxblur=20.0 / qblur=0.5 / ip_ratio=1.40 / pb_ratio=1.30 / aq=2:1.00
  25. Language                                 : English
  26. Default                                  : Yes
  27. Forced                                   : No

  28. Audio
  29. ID                                       : 2
  30. Format                                   : AC-3
  31. Format/Info                              : Audio Coding 3
  32. Commercial name                          : Dolby Digital
  33. Codec ID                                 : A_AC3
  34. Duration                                 : 1 h 53 min
  35. Bit rate mode                            : Constant
  36. Bit rate                                 : 640 kb/s
  37. Channel(s)                               : 6 channels
  38. Channel layout                           : L R C LFE Ls Rs
  39. Sampling rate                            : 48.0 kHz
  40. Frame rate                               : 31.250 FPS (1536 SPF)
  41. Compression mode                         : Lossy
  42. Stream size                              : 521 MiB (6%)
  43. Language                                 : English
  44. Service kind                             : Complete Main
  45. Default                                  : Yes
  46. Forced                                   : No

  47. Text
  48. ID                                       : 3
  49. Format                                   : UTF-8
  50. Codec ID                                 : S_TEXT/UTF8
  51. Codec ID/Info                            : UTF-8 Plain Text
  52. Language                                 : English
  53. Default                                  : Yes
  54. Forced                                   : No
复制代码









                                       
                                       

                                       
                                       
                                       




回复

使用道具 举报

懒得打字嘛,点击右侧快捷回复 【右侧内容,后台自定义】
您需要登录后才可以回帖 登录 | 立即加入

本版积分规则

Archiver|小黑屋| 蓝光电影网 |网站地图

Copyright © 2021 Comsenz Inc. Powered by 蓝光电影网

蓝光电影网

本站内容由用户自主分享和转载自互联网,转载目的在于传递更多信息,并不代表本网赞同其观点和对其真实性负责。

如有侵权、违反国家法律政策行为,请联系我们,我们会第一时间及时清除和处理!

举报反馈邮箱:[email protected]

快速回复 返回顶部 返回列表