找回密码

蓝光电影网

查看: 12|回复: 0

[剧情] 热情花招 Hot.Gimmick.Girl.Meets.Boy.2019.JAPANESE.1080p.BluRay.x264.DTS-iKiW 11.50GB

[复制链接]
蓝光币
511
发表于 2020-11-5 08:54:52 | 显示全部楼层 |阅读模式


◎译  名 热情把戏/Hot Gimmick: Girl Meets Boy/女孩碰见男孩
◎片  名 ホットギミック ガールミーツボーイ
◎年  代 2019
◎产  地 日本
◎类  别 剧情
◎语  言 日语
◎上映日期 2019-06-20(上海电影节) / 2019-06-28(日本)
◎IMDb评分  4.5/10 from 261 users
◎IMDb链接  https://www.imdb.com/title/tt10061256/
◎豆瓣评分 6.5/10 from 1696 users
◎豆瓣链接 https://movie.douban.com/subject/30334584/
◎片  长 119分钟
◎导  演 山户结希 Y?ki Yamato
◎编  剧 相原实贵 Miki Aihara / 山户结希 Y?ki Yamato
◎主  演 堀未央奈 Miona Hori
       清水寻也 Hiroya Shimizu
       板垣瑞生 Mizuki Itagaki
       间宫祥太朗 Shotaro Mamiya
       樱田日和 Hiyori Sakurada
       上村海成 Kaisei Kamimura
       吉川爱 Ai Yoshikawa
       志磨辽平 Ry?hei Shima
       黑泽明日香 Asuka Kurosawa
       高桥和也 Kazuya Takahashi
       反町隆史 Takashi Sorimachi
       吉冈里帆 Riho Yoshioka
◎标  签 日本 | 2019 | 恋爱 | 青春 | 少女漫改 | 剧情 | 漫画小说真人版 | 漫画改编
◎简  介


  女子高生?初(堀)和哥哥?凌(間宮)以及妹妹?茜和怙恃住在一路。某日被住在同一间公寓的橘亮辉(清水)捉住了痛处,被亮辉在理的号令往返折腾。在这时,数年前搬走的竹马?小田切梓(板垣)返来了。初被梓一如以往保护着自己的样子自然地吸引,即使被亮辉不竭从中障碍,初还是同梓交往了,但实在梓怀有着不为人知的目标。此时,初也晓得了凌的奥秘…
◎获奖情况
  第22届上海国际电影节 ?(2019)
  亚洲新人奖最好女配角(提名) 堀未央奈
  1. Video
  2. ID                                       : 1
  3. Format                                   : AVC
  4. Format/Info                              : Advanced Video Codec
  5. Format profile                           : [email protected]
  6. Format settings                          : CABAC / 5 Ref Frames
  7. Format settings, CABAC                   : Yes
  8. Format settings, Reference frames        : 5 frames
  9. Codec ID                                 : V_MPEG4/ISO/AVC
  10. Duration                                 : 2 h 0 min
  11. Bit rate                                 : 12.2 Mb/s
  12. Width                                    : 1 920 pixels
  13. Height                                   : 804 pixels
  14. Display aspect ratio                     : 2.40:1
  15. Frame rate mode                          : Constant
  16. Frame rate                               : 23.976 (24000/1001/189150) FPS
  17. Color space                              : YUV
  18. Chroma subsampling                       : 4:2:0
  19. Bit depth                                : 8 bits
  20. Scan type                                : Progressive
  21. Bits/(Pixel*Frame)                       : 0.329
  22. Stream size                              : 10.2 GiB (89%)
  23. Writing library                          : x264 core 129 r2245+704+36 8e61944 tMod+MixAQ [[email protected]:2:0 X86_64]
  24. Encoding settings                        : cabac=1 / ref=5 / deblock=1:-3:-3 / analyse=0x3:0x133 / me=umh / subme=11 / psy=1 / fade_compensate=0.00 / psy_rd=1.00:0.10 / mixed_ref=1 / me_range=64 / chroma_me=1 / trellis=2 / 8x8dct=1 / cqm=0 / deadzone=21,11 / fast_pskip=0 / chroma_qp_offset=-3 / threads=18 / lookahead_threads=3 / sliced_threads=0 / nr=0 / decimate=0 / interlaced=0 / bluray_compat=0 / constrained_intra=0 / fgo=0 / bframes=10 / b_pyramid=2 / b_adapt=2 / b_bias=0 / direct=3 / weightb=1 / open_gop=0 / weightp=2 / keyint=250 / keyint_min=23 / scenecut=40 / intra_refresh=0 / rc=2pass / mbtree=0 / bitrate=12192 / ratetol=1.0 / qcomp=0.70 / qpmin=0 / qpmax=69 / qpstep=4 / cplxblur=20.0 / qblur=0.5 / ip_ratio=1.40 / pb_ratio=1.30 / aq=1 / aq-strength=0.90 / aq-sensitivity=10.00 / aq-ifactor=1.00 / aq-pfactor=1.00 / aq-bfactor=1.00 / aq2=0
  25. Language                                 : Japanese
  26. Default                                  : Yes
  27. Forced                                   : No
  28. Audio
  29. ID                                       : 2
  30. Format                                   : DTS
  31. Format/Info                              : Digital Theater Systems
  32. Codec ID                                 : A_DTS
  33. Duration                                 : 2 h 0 min
  34. Bit rate mode                            : Constant
  35. Bit rate                                 : 1 509 kb/s
  36. Channel(s)                               : 6 channels
  37. Channel layout                           : C L R Ls Rs LFE
  38. Sampling rate                            : 48.0 kHz
  39. Frame rate                               : 93.750 FPS (512 SPF)
  40. Bit depth                                : 24 bits
  41. Compression mode                         : Lossy
  42. Stream size                              : 1.27 GiB (11%)
  43. Language                                 : Japanese
  44. Default                                  : Yes
  45. Forced                                   : No
  46. Text
  47. ID                                       : 3
  48. Format                                   : UTF-8
  49. Codec ID                                 : S_TEXT/UTF8
  50. Codec ID/Info                            : UTF-8 Plain Text
  51. Duration                                 : 1 h 55 min
  52. Bit rate                                 : 55 b/s
  53. Count of elements                        : 1569
  54. Stream size                              : 47.1 KiB (0%)
  55. Language                                 : English
  56. Default                                  : Yes
  57. Forced                                   : No
复制代码






                                       
                                       

                                       
                                       
                                       




回复

使用道具 举报

懒得打字嘛,点击右侧快捷回复 【右侧内容,后台自定义】
您需要登录后才可以回帖 登录 | 立即加入

本版积分规则

Archiver|小黑屋| 蓝光电影网 |网站地图

Copyright © 2021 Comsenz Inc. Powered by 蓝光电影网

蓝光电影网

本站内容由用户自主分享和转载自互联网,转载目的在于传递更多信息,并不代表本网赞同其观点和对其真实性负责。

如有侵权、违反国家法律政策行为,请联系我们,我们会第一时间及时清除和处理!

举报反馈邮箱:[email protected]

快速回复 返回顶部 返回列表