找回密码

蓝光电影网

查看: 12|回复: 0

[剧情] 内战前/内战前夕 Antebellum.2020.1080p.BluRay.x264-SOIGNEUR 17.92GB

[复制链接]
蓝光币
511
发表于 2020-11-5 08:52:26 | 显示全部楼层 |阅读模式


◎译  名 内战前/内战前夜/顫役循环(台)/颤·役·前(港)
◎片  名 Antebellum
◎年  代 2020
◎产  地 美国
◎类  别 剧情 / 悬疑 / 惊悚
◎语  言 英语
◎上映日期 2020-09-18(美国)
◎IMDb评分  5.5/10 from 10555 users
◎IMDb链接  https://www.imdb.com/title/tt10065694/
◎豆瓣评分 6.4/10 from 1561 users
◎豆瓣链接 https://movie.douban.com/subject/34814175/
◎片  长 105分钟
◎导  演 杰拉德·布什 Gerard Bush / 克里斯托弗·伦兹 Christopher Renz
◎编  剧 杰拉德·布什 Gerard Bush / 克里斯托弗·伦兹 Christopher Renz
◎主  演 加奈儿·梦奈 Janelle Monáe
       吉娜·马隆 Jena Malone
       科雷西·克莱门斯 Kiersey Clemons
       罗伯特·阿拉马约 Robert Aramayo
       杰克·休斯顿 Jack Huston
       加布蕾·丝迪贝 Gabourey Sidibe
       埃里克·兰格 Eric Lange
       马克·理查德森二世 Marque Richardson II
       莉莉·考尔斯 Lily Cowles
       汤加伊·基里萨 Tongayi Chirisa
◎标  签 惊悚 | 美国 | 可骇 | 2020 | 剧情 | 历史 | 美国电影 | 时空
◎简  介


  备受推重的著名女作家法朗妮卡原本过着成功人士的美好生活,但是一场经心设想的结构,却令她堕入极端可怖的景况……为求保命,她必须与时候比赛,把握机会,拆解眼前满布谜雾的心寒诡秘。
  1. Video
  2. ID                                       : 1
  3. Format                                   : AVC
  4. Format/Info                              : Advanced Video Codec
  5. Format profile                           : [email protected]
  6. Format settings                          : CABAC / 5 Ref Frames
  7. Format settings, CABAC                   : Yes
  8. Format settings, Reference frames        : 5 frames
  9. Codec ID                                 : V_MPEG4/ISO/AVC
  10. Duration                                 : 1 h 46 min
  11. Bit rate                                 : 18.8 Mb/s
  12. Width                                    : 1 920 pixels
  13. Height                                   : 804 pixels
  14. Display aspect ratio                     : 2.40:1
  15. Frame rate mode                          : Constant
  16. Frame rate                               : 23.976 (24000/1001/189150) FPS
  17. Color space                              : YUV
  18. Chroma subsampling                       : 4:2:0
  19. Bit depth                                : 8 bits
  20. Scan type                                : Progressive
  21. Bits/(Pixel*Frame)                       : 0.509
  22. Stream size                              : 13.9 GiB (78%)
  23. Writing library                          : x264 core 161 r3027 4121277
  24. Encoding settings                        : cabac=1 / ref=5 / deblock=1:-3:-3 / analyse=0x3:0x133 / me=umh / subme=10 / psy=1 / psy_rd=1.20:0.00 / mixed_ref=1 / me_range=24 / chroma_me=1 / trellis=2 / 8x8dct=1 / cqm=0 / deadzone=21,11 / fast_pskip=0 / chroma_qp_offset=-2 / threads=24 / lookahead_threads=4 / sliced_threads=0 / nr=0 / decimate=0 / interlaced=0 / bluray_compat=0 / constrained_intra=0 / bframes=8 / b_pyramid=2 / b_adapt=2 / b_bias=0 / direct=3 / weightb=1 / open_gop=0 / weightp=2 / keyint=250 / keyint_min=23 / scenecut=40 / intra_refresh=0 / rc=crf / mbtree=0 / crf=18.0 / qcomp=0.60 / qpmin=0 / qpmax=69 / qpstep=4 / ip_ratio=1.40 / pb_ratio=1.30 / aq=3:0.90
  25. Default                                  : Yes
  26. Forced                                   : No
  27. Color range                              : Limited
  28. Matrix coefficients                      : BT.709

  29. Audio #1
  30. ID                                       : 2
  31. Format                                   : MLP FBA 16-ch
  32. Format/Info                              : Meridian Lossless Packing FBA with 16-channel presentation
  33. Commercial name                          : Dolby TrueHD with Dolby Atmos
  34. Codec ID                                 : A_TRUEHD
  35. Duration                                 : 1 h 46 min
  36. Bit rate mode                            : Variable
  37. Bit rate                                 : 4 616 kb/s
  38. Maximum bit rate                         : 5 877 kb/s
  39. Channel(s)                               : 8 channels
  40. Channel layout                           : L R C LFE Ls Rs Lb Rb
  41. Sampling rate                            : 48.0 kHz
  42. Frame rate                               : 1 200.000 FPS (40 SPF)
  43. Compression mode                         : Lossless
  44. Stream size                              : 3.42 GiB (19%)
  45. Language                                 : English
  46. Default                                  : Yes
  47. Forced                                   : No
  48. Number of dynamic objects                : 15
  49. Bed channel count                        : 1 channel
  50. Bed channel configuration                : LFE

  51. Audio #2
  52. ID                                       : 3
  53. Format                                   : AC-3
  54. Format/Info                              : Audio Coding 3
  55. Commercial name                          : Dolby Digital
  56. Codec ID                                 : A_AC3
  57. Duration                                 : 1 h 46 min
  58. Bit rate mode                            : Constant
  59. Bit rate                                 : 640 kb/s
  60. Channel(s)                               : 6 channels
  61. Channel layout                           : L R C LFE Ls Rs
  62. Sampling rate                            : 48.0 kHz
  63. Frame rate                               : 31.250 FPS (1536 SPF)
  64. Compression mode                         : Lossy
  65. Stream size                              : 485 MiB (3%)
  66. Language                                 : English
  67. Service kind                             : Complete Main
  68. Default                                  : No
  69. Forced                                   : No

  70. Text #1
  71. ID                                       : 4
  72. Format                                   : PGS
  73. Muxing mode                              : zlib
  74. Codec ID                                 : S_HDMV/PGS
  75. Codec ID/Info                            : Picture based subtitle format used on BDs/HD-DVDs
  76. Duration                                 : 1 h 41 min
  77. Bit rate                                 : 31.0 kb/s
  78. Count of elements                        : 2409
  79. Stream size                              : 22.5 MiB (0%)
  80. Title                                    : SDH
  81. Language                                 : English
  82. Default                                  : No
  83. Forced                                   : No

  84. Text #2
  85. ID                                       : 5
  86. Format                                   : PGS
  87. Muxing mode                              : zlib
  88. Codec ID                                 : S_HDMV/PGS
  89. Codec ID/Info                            : Picture based subtitle format used on BDs/HD-DVDs
  90. Duration                                 : 1 h 44 min
  91. Bit rate                                 : 21.5 kb/s
  92. Count of elements                        : 1750
  93. Stream size                              : 16.1 MiB (0%)
  94. Language                                 : French
  95. Default                                  : No
  96. Forced                                   : No

  97. Text #3
  98. ID                                       : 6
  99. Format                                   : PGS
  100. Muxing mode                              : zlib
  101. Codec ID                                 : S_HDMV/PGS
  102. Codec ID/Info                            : Picture based subtitle format used on BDs/HD-DVDs
  103. Duration                                 : 1 h 41 min
  104. Bit rate                                 : 23.0 kb/s
  105. Count of elements                        : 1781
  106. Stream size                              : 16.6 MiB (0%)
  107. Language                                 : Spanish
  108. Default                                  : No
  109. Forced                                   : No

  110. Menu
  111. 00:00:00.000                             : en:Chapter 01
  112. 00:07:53.348                             : en:Chapter 02
  113. 00:12:54.649                             : en:Chapter 03
  114. 00:18:24.603                             : en:Chapter 04
  115. 00:22:50.577                             : en:Chapter 05
  116. 00:28:19.823                             : en:Chapter 06
  117. 00:35:25.457                             : en:Chapter 07
  118. 00:40:31.929                             : en:Chapter 08
  119. 00:47:07.825                             : en:Chapter 09
  120. 00:53:07.017                             : en:Chapter 10
  121. 00:59:17.429                             : en:Chapter 11
  122. 01:07:22.288                             : en:Chapter 12
  123. 01:13:17.476                             : en:Chapter 13
  124. 01:18:37.296                             : en:Chapter 14
  125. 01:24:42.285                             : en:Chapter 15
  126. 01:32:54.819                             : en:Chapter 16
复制代码




                                       
                                       

                                       
                                       
                                       




回复

使用道具 举报

懒得打字嘛,点击右侧快捷回复 【右侧内容,后台自定义】
您需要登录后才可以回帖 登录 | 立即加入

本版积分规则

Archiver|小黑屋| 蓝光电影网 |网站地图

Copyright © 2021 Comsenz Inc. Powered by 蓝光电影网

蓝光电影网

本站内容由用户自主分享和转载自互联网,转载目的在于传递更多信息,并不代表本网赞同其观点和对其真实性负责。

如有侵权、违反国家法律政策行为,请联系我们,我们会第一时间及时清除和处理!

举报反馈邮箱:[email protected]

快速回复 返回顶部 返回列表