找回密码

蓝光电影网

查看: 12|回复: 0

[剧情] 无罪的罪人/推定无罪 Presumed.Innocent.1990.1080p.BluRay.x264.DD2.0-FGT 7.95GB

[复制链接]
蓝光币
515
发表于 2020-11-5 08:36:37 | 显示全部楼层 |阅读模式


◎译  名 无罪的罪人/推定无罪/无罪推定/欲网危情
◎片  名 Presumed Innocent
◎年  代 1990
◎产  地 美国
◎类  别 剧情 / 悬疑 / 惊悚 / 犯罪
◎语  言 英语
◎上映日期 1990-07-27
◎IMDb评分  6.9/10 from 37054 users
◎IMDb链接  https://www.imdb.com/title/tt0100404/
◎豆瓣评分 7.4/10 from 1342 users
◎豆瓣链接 https://movie.douban.com/subject/1294196/
◎片  长 127 分钟
◎导  演 艾伦·J·帕库拉 Alan J. Pakula
◎编  剧 弗兰克·皮尔森 Frank Pierson / 艾伦·J·帕库拉 Alan J. Pakula
◎主  演 哈里森·福特 Harrison Ford
       布莱恩·丹内利 Brian Dennehy
       劳尔·胡里亚 Raul Julia
       邦妮·比蒂丽娅 Bonnie Bedelia
       保罗·温菲尔德 Paul Winfield
       塔克·斯莫尔伍德 Tucker Smallwood
       杰西·布拉德福特 Jesse Bradford
       约瑟夫·梅泽罗 Joseph Mazzello
       大卫·沃尔 David Wohl
       彼得·阿佩尔 Peter Appel
       Joseph Carberry
       杰弗里·怀特 Jeffrey Wright
       迈克尔·托兰 Michael Tolan
       克里斯汀·艾斯布鲁克 Christine Estabrook
       约翰·斯宾塞 John Spencer
       格列塔·斯卡奇 Greta Scacchi
       乔·格里法西 Joe Grifasi
       汤姆·马迪罗沙 Tom Mardirosian
       安娜·玛利亚·霍斯福德 Anna Maria Horsford
       夏野萨博 Sab Shimono
       布莱德利·惠特福德 Bradley Whitford
◎标  签 悬疑 | 犯罪 | 美国 | 法令 | 哈里森·福特 | 美国电影 | 1990 | HarrisonFord
◎简  介


  拉斯迪(哈里森·福特 Harrison Ford 饰)在检察院里打拼多年,终极成为了首席检察官。某日,助理检察官卡洛琳(格列塔·斯卡奇 Greta Scacchi 饰)出现在了拉斯迪的身旁,自动对他投怀送抱。本来,卡洛琳觊觎拉斯迪的首席检察官之位已久,她希望帮助拉斯迪坐上监察处处长的职位,自己则可以渔翁得利。
  
  哪晓得拉斯迪并非野心勃勃之人,对向权利颠峰攀爬并无爱好,得知了计划失,卡洛琳果断的分开了拉斯迪。但是某一日,拉斯迪忽然获得了卡洛琳被杀戮的消息,令他感应匪夷所思的是,凶案现场的各种证据,都在控诉拉斯迪就是罪魁罪魁。拉斯迪晓得自己落入了某人一手策划的圈套当中,而愿意为他辩解的,只要他自己。
  1. Video
  2. ID                                       : 1
  3. Format                                   : AVC
  4. Format/Info                              : Advanced Video Codec
  5. Format profile                           : [email protected]
  6. Format settings                          : CABAC / 4 Ref Frames
  7. Format settings, CABAC                   : Yes
  8. Format settings, Reference frames        : 4 frames
  9. Codec ID                                 : V_MPEG4/ISO/AVC
  10. Duration                                 : 2 h 6 min
  11. Bit rate                                 : 8 321 kb/s
  12. Width                                    : 1 920 pixels
  13. Height                                   : 1 080 pixels
  14. Display aspect ratio                     : 16:9
  15. Frame rate mode                          : Constant
  16. Frame rate                               : 23.976 FPS
  17. Color space                              : YUV
  18. Chroma subsampling                       : 4:2:0
  19. Bit depth                                : 8 bits
  20. Scan type                                : Progressive
  21. Bits/(Pixel*Frame)                       : 0.167
  22. Stream size                              : 7.22 GiB (91%)
  23. Writing library                          : x264 core 84 r1416 fcf70c2
  24. Encoding settings                        : cabac=1 / ref=4 / deblock=1:-1:-1 / analyse=0x3:0x113 / me=umh / subme=7 / psy=1 / psy_rd=1.0:0.0 / mixed_ref=1 / me_range=16 / chroma_me=1 / trellis=2 / 8x8dct=1 / cqm=0 / deadzone=21,11 / fast_pskip=1 / chroma_qp_offset=-2 / threads=6 / sliced_threads=0 / nr=0 / decimate=1 / mbaff=0 / constrained_intra=0 / bframes=3 / b_pyramid=0 / b_adapt=2 / b_bias=0 / direct=3 / wpredb=1 / wpredp=2 / keyint=250 / keyint_min=25 / scenecut=40 / intra_refresh=0 / rc_lookahead=40 / rc=2pass / mbtree=1 / bitrate=8321 / ratetol=1.0 / qcomp=0.60 / qpmin=10 / qpmax=51 / qpstep=4 / cplxblur=20.0 / qblur=0.5 / vbv_maxrate=50000 / vbv_bufsize=50000 / ip_ratio=1.40 / aq=1:1.00
  25. Language                                 : English
  26. Default                                  : Yes
  27. Forced                                   : No

  28. Audio
  29. ID                                       : 2
  30. Format                                   : AC-3
  31. Format/Info                              : Audio Coding 3
  32. Commercial name                          : Dolby Digital
  33. Codec ID                                 : A_AC3
  34. Duration                                 : 2 h 6 min
  35. Bit rate mode                            : Constant
  36. Bit rate                                 : 640 kb/s
  37. Channel(s)                               : 2 channels
  38. Channel layout                           : L R
  39. Sampling rate                            : 48.0 kHz
  40. Frame rate                               : 31.250 FPS (1536 SPF)
  41. Compression mode                         : Lossy
  42. Stream size                              : 581 MiB (7%)
  43. Language                                 : English
  44. Service kind                             : Complete Main
  45. Default                                  : No
  46. Forced                                   : No

  47. Text
  48. ID                                       : 3
  49. Format                                   : UTF-8
  50. Codec ID                                 : S_TEXT/UTF8
  51. Codec ID/Info                            : UTF-8 Plain Text
  52. Language                                 : English
  53. Default                                  : No
  54. Forced                                   : No
复制代码







                                       
                                       

                                       
                                       
                                       




回复

使用道具 举报

懒得打字嘛,点击右侧快捷回复 【右侧内容,后台自定义】
您需要登录后才可以回帖 登录 | 立即加入

本版积分规则

Archiver|小黑屋| 蓝光电影网 |网站地图

Copyright © 2021 Comsenz Inc. Powered by 蓝光电影网

蓝光电影网

本站内容由用户自主分享和转载自互联网,转载目的在于传递更多信息,并不代表本网赞同其观点和对其真实性负责。

如有侵权、违反国家法律政策行为,请联系我们,我们会第一时间及时清除和处理!

举报反馈邮箱:[email protected]

快速回复 返回顶部 返回列表