找回密码

蓝光电影网

查看: 8|回复: 0

[剧情] 助理/女助理 The.Assistant.2019.1080p.BluRay.x264-SURCODE 4.96GB

[复制链接]
蓝光币
515
发表于 2020-11-5 08:36:23 | 显示全部楼层 |阅读模式


◎译  名 助理/女助理
◎片  名 The Assistant
◎年  代 2019
◎产  地 美国
◎类  别 剧情
◎语  言 英语
◎上映日期 2019-08-30(特柳赖德电影节) / 2020-01-31(美国)
◎IMDb评分  6.1/10 from 9595 users
◎IMDb链接  https://www.imdb.com/title/tt9000224/
◎豆瓣评分 7.0/10 from 3231 users
◎豆瓣链接 https://movie.douban.com/subject/30402843/
◎片  长 87分钟
◎导  演 基蒂·格林 Kitty Green
◎编  剧 基蒂·格林 Kitty Green
◎主  演 朱莉娅·加纳 Julia Garner
       马修·麦克费登 Matthew Macfadyen
       克里斯汀·弗劳赛斯 Kristine Froseth
       达格玛拉·多敏齐克 Dagmara Dominczyk
       麦肯兹·利 Makenzie Leigh
       诺亚·罗宾斯 Noah Robbins
       亚历山大·卓别林 Alexander Chaplin
       克拉拉·王 Clara Wong
       布莱克叶·埃南 Bregje Heinen
       普鲁瓦·贝迪 Purva Bedi
       德文·卡拉韦 Devon Caraway
       乔尼·奥尔西尼 Jon Orsini
       Stéphanye Dussud
◎标  签 女性 | 美国 | 剧情 | 纪实/列传 | 美国电影 | 电影 | 2019 | 2020
◎简  介


  茱莉亚·加纳(《壁花少年》《陋规胜地》)商谈主演聚焦哈维·韦恩斯坦助理的未命名影片,由《童心无归处》导演Kitty Green和团队打造,这是一部非现实电影,聚焦韦恩斯坦一位助理人生中的一天。
  
  Green花了近一年时候收集大量材料,贮存对天天在韦恩斯坦安排下的工作情况中工作的雇员的信息。她暗示,观察的进程让她印象最深的是“韦恩斯坦长达30年的治理之反复和无聊——很多年轻人,特别是女性,怀着起头自己的职业生活的心态进到他的公司,而天天他们要在那样的情况下工作,这极为可骇”。
  1. Video
  2. ID                                       : 1
  3. Format                                   : AVC
  4. Format/Info                              : Advanced Video Codec
  5. Format profile                           : [email protected]
  6. Format settings                          : CABAC / 4 Ref Frames
  7. Format settings, CABAC                   : Yes
  8. Format settings, Reference frames        : 4 frames
  9. Codec ID                                 : V_MPEG4/ISO/AVC
  10. Duration                                 : 1 h 27 min
  11. Bit rate                                 : 6 198 kb/s
  12. Width                                    : 1 920 pixels
  13. Height                                   : 960 pixels
  14. Display aspect ratio                     : 2.000
  15. Frame rate mode                          : Constant
  16. Frame rate                               : 24.000 FPS
  17. Color space                              : YUV
  18. Chroma subsampling                       : 4:2:0
  19. Bit depth                                : 8 bits
  20. Scan type                                : Progressive
  21. Bits/(Pixel*Frame)                       : 0.140
  22. Stream size                              : 3.79 GiB (77%)
  23. Writing library                          : x264 core 161 r3018 db0d417
  24. Encoding settings                        : cabac=1 / ref=4 / deblock=1:-3:-3 / analyse=0x3:0x133 / me=umh / subme=9 / psy=1 / psy_rd=1.00:0.00 / mixed_ref=1 / me_range=16 / chroma_me=1 / trellis=2 / 8x8dct=1 / cqm=0 / deadzone=21,11 / fast_pskip=0 / chroma_qp_offset=-2 / threads=30 / lookahead_threads=2 / sliced_threads=0 / nr=0 / decimate=1 / interlaced=0 / bluray_compat=0 / constrained_intra=0 / bframes=3 / b_pyramid=2 / b_adapt=2 / b_bias=0 / direct=3 / weightb=1 / open_gop=0 / weightp=2 / keyint=250 / keyint_min=24 / scenecut=40 / intra_refresh=0 / rc_lookahead=60 / rc=crf / mbtree=1 / crf=17.0 / qcomp=0.60 / qpmin=0 / qpmax=69 / qpstep=4 / ip_ratio=1.40 / aq=1:1.00
  25. Language                                 : English
  26. Default                                  : Yes
  27. Forced                                   : No

  28. Audio
  29. ID                                       : 2
  30. Format                                   : DTS XLL
  31. Format/Info                              : Digital Theater Systems
  32. Commercial name                          : DTS-HD Master Audio
  33. Codec ID                                 : A_DTS
  34. Duration                                 : 1 h 27 min
  35. Bit rate mode                            : Variable
  36. Bit rate                                 : 1 892 kb/s
  37. Channel(s)                               : 6 channels
  38. Channel layout                           : C L R Ls Rs LFE
  39. Sampling rate                            : 48.0 kHz
  40. Frame rate                               : 93.750 FPS (512 SPF)
  41. Bit depth                                : 16 bits
  42. Compression mode                         : Lossless
  43. Stream size                              : 1.16 GiB (23%)
  44. Language                                 : English
  45. Default                                  : Yes
  46. Forced                                   : No

  47. Text
  48. ID                                       : 3
  49. Format                                   : PGS
  50. Muxing mode                              : zlib
  51. Codec ID                                 : S_HDMV/PGS
  52. Codec ID/Info                            : Picture based subtitle format used on BDs/HD-DVDs
  53. Duration                                 : 1 h 21 min
  54. Bit rate                                 : 16.7 kb/s
  55. Count of elements                        : 1206
  56. Stream size                              : 9.76 MiB (0%)
  57. Language                                 : German
  58. Default                                  : No
  59. Forced                                   : No

  60. Menu
  61. 00:00:00.000                             : en:Kapitel 01
  62. 00:07:00.292                             : en:Kapitel 02
  63. 00:13:40.333                             : en:Kapitel 03
  64. 00:20:48.125                             : en:Kapitel 04
  65. 00:26:50.458                             : en:Kapitel 05
  66. 00:32:29.750                             : en:Kapitel 06
  67. 00:40:31.083                             : en:Kapitel 07
  68. 00:47:11.708                             : en:Kapitel 08
  69. 00:57:46.208                             : en:Kapitel 09
  70. 01:05:18.208                             : en:Kapitel 10
  71. 01:13:12.458                             : en:Kapitel 11
  72. 01:21:19.792                             : en:Kapitel 12
复制代码



                                       
                                       

                                       
                                       
                                       




回复

使用道具 举报

懒得打字嘛,点击右侧快捷回复 【右侧内容,后台自定义】
您需要登录后才可以回帖 登录 | 立即加入

本版积分规则

Archiver|小黑屋| 蓝光电影网 |网站地图

Copyright © 2021 Comsenz Inc. Powered by 蓝光电影网

蓝光电影网

本站内容由用户自主分享和转载自互联网,转载目的在于传递更多信息,并不代表本网赞同其观点和对其真实性负责。

如有侵权、违反国家法律政策行为,请联系我们,我们会第一时间及时清除和处理!

举报反馈邮箱:[email protected]

快速回复 返回顶部 返回列表