找回密码

蓝光电影网

查看: 21|回复: 0

[剧情] 钢琴课 The.Piano.1993.1080p.BluRay.x264-AVCHD 7.94GB

[复制链接]
蓝光币
511
发表于 2020-11-4 11:29:28 | 显示全部楼层 |阅读模式


◎译  名 钢琴课/Piano/奇情孽恋/钢琴别恋(港)/钢琴师和她的情人(台)
◎片  名 The Piano
◎年  代 1993
◎产  地 新西兰,澳大利亚,法国
◎类  别 剧情 / 恋爱 / 音乐
◎语  言 英语,英国手语,毛利语
◎上映日期 1993-05-17(戛纳电影节) / 1993-05-19(法国) / 1993-08-05(澳大利亚)
◎IMDb评分  7.6/10 from 78016 users
◎IMDb链接  https://www.imdb.com/title/tt0107822/
◎豆瓣评分 8.0/10 from 78112 users
◎豆瓣链接 https://movie.douban.com/subject/1293818/
◎片  长 121分钟
◎导  演 简·坎皮恩 Jane Campion
◎编  剧 简·坎皮恩 Jane Campion
◎主  演 霍利·亨特 Holly Hunter
       哈威·凯特尔 Harvey Keitel
       山姆·尼尔 Sam Neill
       安娜·帕奎因 Anna Paquin
       克利夫·柯蒂斯 Cliff Curtis
       克里·沃克 Kerry Walker
       吉娜维夫·莱蒙 Geneviève Lemon
       伊恩·穆内 Ian Mune
       佩特·史姑娘 Pete Smith
       布鲁克·奥佩斯 Bruce Allpress
       罗丝·麦克莱弗 Rose McIver
       迈克尔·尼曼 Michael Nyman
       斯蒂芬·帕普斯 Stephen Papps
       Guy Moana
       Jon Brazier
       户田惠子 Keiko Toda
◎标  签 恋爱 | 钢琴 | 女性 | 文艺 | 法国 | 澳大利亚 | 新西兰 | 情色
◎简  介


  苏格兰单身母亲艾达·麦格拉斯(霍利·亨特 饰)自六岁起就放弃了讲话,只经过钢琴倾吐满腔感情。1852年,麦格拉斯远嫁新西兰的斯图尔特(山姆·尼尔 饰),将钢琴也一并带了去。可是斯图尔特人手不够,只得将粗笨的钢琴抛弃海滩。斯图尔特之友乔治·贝恩斯(哈维·凯特尔 饰)爱上了麦格拉斯,用八十英亩地盘与斯图尔特买卖。斯图尔特让渡了钢琴,并命麦格拉斯教贝恩斯弹琴。钢琴课上,贝恩斯发起,假如麦格拉斯在教琴的时辰答应某些出格的工作发生,一次课即可换回一个琴键……
◎获奖情况
  第66届奥斯卡金像奖 ?(1994)
  最好影片(提名) 简·查普曼
  最好导演(提名) 简·坎皮恩
  最好女配角 霍利·亨特
  最好女配角 安娜·帕奎因
  最好原创剧本 简·坎皮恩
  最好摄影(提名) 斯图尔特·瑞伯
  最好剪辑(提名) 维罗妮卡·詹尼特
  最好打扮设想(提名) 珍妮特·帕特森
  
  第46届戛纳电影节 ?(1993)
  主比赛单元金棕榈奖 简·坎皮恩
  主比赛单元最好女演员 霍利·亨特
  
  第47届英国电影学院奖 ?(1994)
  电影奖最好影片(提名) 简·查普曼?/?简·坎皮恩
  电影奖最好导演(提名) 简·坎皮恩
  电影奖最好女配角 霍利·亨特
  电影奖最好原创剧本(提名) 简·坎皮恩
  电影奖最好摄影(提名) 斯图尔特·瑞伯
  电影奖最好剪辑(提名) 维罗妮卡·詹尼特
  电影奖最好打扮设想 珍妮特·帕特森
  电影奖最好艺术指导 安德鲁·麦克阿尔平
  电影奖最好原创音乐(提名) 迈克尔·尼曼
  电影奖最好音效(提名) 盖辛·克里夫?/?托尼·约翰逊?/?李·史姑娘
  
  第18届日本电影学院奖 ?(1995)
  最好外语片(提名)
  
  第19届法国凯撒电影奖 ?(1994)
  最好外语片
  1. Video
  2. ID                                       : 1
  3. Format                                   : AVC
  4. Format/Info                              : Advanced Video Codec
  5. Format profile                           : [email protected]
  6. Format settings                          : CABAC / 4 Ref Frames
  7. Format settings, CABAC                   : Yes
  8. Format settings, Reference frames        : 4 frames
  9. Codec ID                                 : V_MPEG4/ISO/AVC
  10. Duration                                 : 1 h 55 min
  11. Bit rate                                 : 8 330 kb/s
  12. Width                                    : 1 920 pixels
  13. Height                                   : 1 040 pixels
  14. Display aspect ratio                     : 1.85:1
  15. Frame rate mode                          : Constant
  16. Frame rate                               : 25.000 FPS
  17. Color space                              : YUV
  18. Chroma subsampling                       : 4:2:0
  19. Bit depth                                : 8 bits
  20. Scan type                                : Progressive
  21. Bits/(Pixel*Frame)                       : 0.167
  22. Stream size                              : 6.57 GiB (83%)
  23. Writing library                          : x264 core 80 r1376 3feaec2
  24. Encoding settings                        : cabac=1 / ref=4 / deblock=1:0:0 / analyse=0x3:0x133 / me=umh / subme=7 / psy=1 / psy_rd=1.0:0.0 / mixed_ref=1 / me_range=16 / chroma_me=1 / trellis=1 / 8x8dct=1 / cqm=0 / deadzone=21,11 / fast_pskip=0 / chroma_qp_offset=-2 / threads=12 / sliced_threads=0 / nr=0 / decimate=1 / mbaff=0 / constrained_intra=0 / bframes=3 / b_pyramid=0 / b_adapt=1 / b_bias=0 / direct=1 / wpredb=1 / wpredp=2 / keyint=250 / keyint_min=25 / scenecut=40 / rc_lookahead=40 / rc=2pass / mbtree=1 / bitrate=8330 / ratetol=1.0 / qcomp=0.60 / qpmin=10 / qpmax=51 / qpstep=4 / cplxblur=20.0 / qblur=0.5 / ip_ratio=1.40 / aq=1:1.00
  25. Language                                 : English
  26. Default                                  : Yes
  27. Forced                                   : No

  28. Audio
  29. ID                                       : 2
  30. Format                                   : DTS
  31. Format/Info                              : Digital Theater Systems
  32. Codec ID                                 : A_DTS
  33. Duration                                 : 1 h 55 min
  34. Bit rate mode                            : Constant
  35. Bit rate                                 : 1 509 kb/s
  36. Channel(s)                               : 6 channels
  37. Channel layout                           : C L R Ls Rs LFE
  38. Sampling rate                            : 48.0 kHz
  39. Frame rate                               : 93.750 FPS (512 SPF)
  40. Bit depth                                : 24 bits
  41. Compression mode                         : Lossy
  42. Stream size                              : 1.22 GiB (15%)
  43. Language                                 : English
  44. Default                                  : Yes
  45. Forced                                   : No

  46. Text
  47. ID                                       : 3
  48. Format                                   : UTF-8
  49. Codec ID                                 : S_TEXT/UTF8
  50. Codec ID/Info                            : UTF-8 Plain Text
  51. Language                                 : English
  52. Default                                  : Yes
  53. Forced                                   : No
复制代码






                                       
                                       

                                       
                                       
                                       




回复

使用道具 举报

懒得打字嘛,点击右侧快捷回复 【右侧内容,后台自定义】
您需要登录后才可以回帖 登录 | 立即加入

本版积分规则

Archiver|小黑屋| 蓝光电影网 |网站地图

Copyright © 2021 Comsenz Inc. Powered by 蓝光电影网

蓝光电影网

本站内容由用户自主分享和转载自互联网,转载目的在于传递更多信息,并不代表本网赞同其观点和对其真实性负责。

如有侵权、违反国家法律政策行为,请联系我们,我们会第一时间及时清除和处理!

举报反馈邮箱:[email protected]

快速回复 返回顶部 返回列表