找回密码

蓝光电影网

查看: 7|回复: 0

[剧情] 人兽杂交/人兽变种 Splice.2009.1080p.BluRay.x264-MACHD 7.94GB

[复制链接]
蓝光币
515
发表于 2020-11-4 11:08:30 | 显示全部楼层 |阅读模式


◎译  名 人兽杂交/人兽变种/野生进化(台)/接种(港)/战栗异种
◎片  名 Splice
◎年  代 2009
◎产  地 加拿大,法国,美国
◎类  别 剧情 / 科幻 / 惊悚
◎语  言 英语
◎上映日期 2009-10-06(希格斯国际奇异可骇电影节) / 2010-06-04(加拿大)
◎IMDb评分  5.7/10 from 92943 users
◎IMDb链接  https://www.imdb.com/title/tt1017460/
◎豆瓣评分 5.5/10 from 60494 users
◎豆瓣链接 https://movie.douban.com/subject/2301701/
◎片  长 104 分钟
◎导  演 文森佐·纳塔利 Vincenzo Natali
◎编  剧 文森佐·纳塔利 Vincenzo Natali / 道格·泰勒 Doug Taylor
◎主  演 艾德里安·布洛迪 Adrien Brody
       德尔菲娜·尚内亚克 Delphine Chanéac
       萨拉·波莉 Sarah Polley
       大卫·休莱特 David Hewlett
◎标  签 科幻 | 惊悚 | 美国 | 人兽嫁接 | 可骇 | 美国电影 | 可骇电影 | 电影
◎简  介


  在至公司纽斯特德的支持下,生物科学家克里夫·尼科利(阿德里安·布洛迪 Adrien Brody 饰)和女友艾尔莎·卡斯特(萨拉·波莉 Sarah Polley 饰)停止基因重组的尝试,并获得初步停顿。但是由于资金和公众言论等缘由,纽斯特德高层决议中断对他们现有研讨的支持。克里夫和艾尔莎不愿中途而废,因而偷偷展开尝试。他们对基因停止优化重组,并混入了艾尔沙的一部分基因,终究孕育出一个边幅奇异的雌性怪物。
  
  秉着科学家的道德和知己,克里夫执意要杀死怪物,而艾尔莎则尽力庇护,视若己出,并将其命名为卓伦。卓伦以缓慢的速度长大,终极酿成一位具有怪异美感的女孩(Delphine Chanéac 饰)。在这一进程中,克里夫和艾尔莎越陷越深……
◎获奖情况
  第12届美国青少年挑选奖 ?(2010)
  最好可骇/惊悚电影(提名)
  
  第1届豆瓣电影鑫像奖 ?(2011)
  豆渣单元最渣导演(外语) 文森佐·纳塔利
  1. Video
  2. ID                                       : 1
  3. Format                                   : AVC
  4. Format/Info                              : Advanced Video Codec
  5. Format profile                           : [email protected]
  6. Format settings                          : CABAC / 4 Ref Frames
  7. Format settings, CABAC                   : Yes
  8. Format settings, Reference frames        : 4 frames
  9. Codec ID                                 : V_MPEG4/ISO/AVC
  10. Duration                                 : 1 h 43 min
  11. Bit rate                                 : 9 401 kb/s
  12. Width                                    : 1 920 pixels
  13. Height                                   : 1 080 pixels
  14. Display aspect ratio                     : 16:9
  15. Frame rate mode                          : Constant
  16. Frame rate                               : 23.976 (24000/1001/189150) FPS
  17. Color space                              : YUV
  18. Chroma subsampling                       : 4:2:0
  19. Bit depth                                : 8 bits
  20. Scan type                                : Progressive
  21. Bits/(Pixel*Frame)                       : 0.189
  22. Stream size                              : 6.69 GiB (84%)
  23. Writing library                          : x264 core 104 r1713 c276662
  24. Encoding settings                        : cabac=1 / ref=4 / deblock=1:0:0 / analyse=0x3:0x113 / me=umh / subme=7 / psy=1 / psy_rd=1.00:0.15 / mixed_ref=1 / me_range=16 / chroma_me=1 / trellis=1 / 8x8dct=1 / cqm=0 / deadzone=21,11 / fast_pskip=0 / chroma_qp_offset=-3 / threads=12 / sliced_threads=0 / nr=0 / decimate=1 / interlaced=0 / constrained_intra=0 / bframes=3 / b_pyramid=2 / b_adapt=1 / b_bias=0 / direct=1 / weightb=1 / open_gop=0 / weightp=2 / keyint=250 / keyint_min=23 / scenecut=40 / intra_refresh=0 / rc_lookahead=40 / rc=2pass / mbtree=1 / bitrate=9401 / ratetol=1.0 / qcomp=0.60 / qpmin=10 / qpmax=51 / qpstep=4 / cplxblur=20.0 / qblur=0.5 / ip_ratio=1.40 / aq=1:1.00
  25. Language                                 : English
  26. Default                                  : Yes
  27. Forced                                   : No

  28. Audio
  29. ID                                       : 2
  30. Format                                   : DTS
  31. Format/Info                              : Digital Theater Systems
  32. Codec ID                                 : A_DTS
  33. Duration                                 : 1 h 43 min
  34. Bit rate mode                            : Constant
  35. Bit rate                                 : 1 509 kb/s
  36. Channel(s)                               : 6 channels
  37. Channel layout                           : C L R Ls Rs LFE
  38. Sampling rate                            : 48.0 kHz
  39. Frame rate                               : 93.750 FPS (512 SPF)
  40. Bit depth                                : 24 bits
  41. Compression mode                         : Lossy
  42. Delay relative to video                  : 7 ms
  43. Stream size                              : 1.10 GiB (14%)
  44. Language                                 : English
  45. Default                                  : Yes
  46. Forced                                   : No

  47. Text
  48. ID                                       : 3
  49. Format                                   : UTF-8
  50. Codec ID                                 : S_TEXT/UTF8
  51. Codec ID/Info                            : UTF-8 Plain Text
  52. Language                                 : English
  53. Default                                  : No
  54. Forced                                   : No
复制代码






                                       
                                       

                                       
                                       
                                       




回复

使用道具 举报

懒得打字嘛,点击右侧快捷回复 【右侧内容,后台自定义】
您需要登录后才可以回帖 登录 | 立即加入

本版积分规则

Archiver|小黑屋| 蓝光电影网 |网站地图

Copyright © 2021 Comsenz Inc. Powered by 蓝光电影网

蓝光电影网

本站内容由用户自主分享和转载自互联网,转载目的在于传递更多信息,并不代表本网赞同其观点和对其真实性负责。

如有侵权、违反国家法律政策行为,请联系我们,我们会第一时间及时清除和处理!

举报反馈邮箱:[email protected]

快速回复 返回顶部 返回列表