找回密码

蓝光电影网

查看: 15|回复: 0

[剧情] 我爱贝克汉姆/像贝克汉姆一样踢球 Bend.It.Like.Beckham.2002.1080p.BluRay.x264-AVCHD 7.94GB

[复制链接]
蓝光币
511
发表于 2020-11-4 11:05:43 | 显示全部楼层 |阅读模式


◎译  名 我爱贝克汉姆/像贝克汉姆一样踢球/我爱碧咸(港)/我爱贝克汉(台)
◎片  名 Bend It Like Beckham
◎年  代 2002
◎产  地 德国,英国,美国
◎类  别 剧情 / 笑剧 / 恋爱 / 活动
◎语  言 英语,德语,北印度语,旁遮普语
◎上映日期 2002-04-11
◎IMDb评分  6.6/10 from 103575 users
◎IMDb链接  https://www.imdb.com/title/tt0286499/
◎豆瓣评分 6.5/10 from 7608 users
◎豆瓣链接 https://movie.douban.com/subject/1302776/
◎片  长 112分钟
◎导  演 顾伦德·查达哈 Gurinder Chadha
◎编  剧 顾伦德·查达哈 Gurinder Chadha / Guljit Bindra
◎主  演 帕敏德·纳格拉 Parminder Nagra
       凯拉·奈特莉 Keira Knightley
       乔纳森·莱斯·梅耶斯 Jonathan Rhys Meyers
       茱丽叶特·斯蒂文森 Juliet Stevenson
       雅奇·潘嘉比 Archie Panjabi
       大卫·贝克汉姆 David Beckham
       Shaheen Khan
       埃斯·巴蒂 Ace Bhatti
◎标  签 英国 | 青春 | 励志 | 足球 | 英国电影 | KeiraKnightley | 笑剧 | 2002
◎简  介


  由于酷爱足球,而喜好贝克汉姆。由于贝克汉姆而加倍爱好足球。与很多球迷一样,杰西(帕敏德·纳格拉 饰)就是这样一个女孩。
  
  作为一个居住英国的印度裔少女,杰西有过人的足球天赋,她酷爱足球,狂热迷恋贝克汉姆,房间里面贴满了小贝的照片。她的胡想就是能像小贝一样成为出色的球员。但是,这一切在印度家庭都是不被答应的。一次偶然的机遇,杰西结识了霍斯特女队的队员朱莉(凯拉·奈特莉 饰),并在她的约请下加入了球队。杰西便瞒着家人,偷偷地起头编织她绿荫场上的胡想。造物弄人,杰西和朱莉居然同时爱上了她们的教练乔(乔纳森·莱斯·梅耶斯 饰)。面临家庭的否决,朋友的抵触,杰西心里布满冲突,完成足球之梦,本来如此艰难。也许,心中的偶像,会给杰西带来气力吧…
◎获奖情况
  第61届金球奖 ?(2004)
  电影类最好音乐/笑剧片(提名)
  
  第56届英国电影学院奖 ?(2003)
  电影奖最好英国影片(提名) 顾伦德·查达哈?/?迪帕克·纳亚尔
  
  第55届洛迦诺国际电影节 ?(2002)
  观众挑选奖 顾伦德·查达哈
  1. Video
  2. ID                                       : 1
  3. Format                                   : AVC
  4. Format/Info                              : Advanced Video Codec
  5. Format profile                           : [email protected]
  6. Format settings                          : CABAC / 4 Ref Frames
  7. Format settings, CABAC                   : Yes
  8. Format settings, Reference frames        : 4 frames
  9. Codec ID                                 : V_MPEG4/ISO/AVC
  10. Duration                                 : 1 h 52 min
  11. Bit rate                                 : 8 638 kb/s
  12. Width                                    : 1 920 pixels
  13. Height                                   : 1 080 pixels
  14. Display aspect ratio                     : 16:9
  15. Frame rate mode                          : Constant
  16. Frame rate                               : 24.000 FPS
  17. Color space                              : YUV
  18. Chroma subsampling                       : 4:2:0
  19. Bit depth                                : 8 bits
  20. Scan type                                : Progressive
  21. Bits/(Pixel*Frame)                       : 0.174
  22. Stream size                              : 6.60 GiB (83%)
  23. Writing library                          : x264 core 105 r1724 b02df7b
  24. Encoding settings                        : cabac=1 / ref=4 / deblock=1:0:0 / analyse=0x3:0x133 / me=umh / subme=8 / psy=1 / psy_rd=1.00:0.00 / mixed_ref=1 / me_range=16 / chroma_me=1 / trellis=1 / 8x8dct=1 / cqm=0 / deadzone=21,11 / fast_pskip=0 / chroma_qp_offset=-2 / threads=12 / sliced_threads=0 / nr=0 / decimate=1 / interlaced=0 / constrained_intra=0 / bframes=3 / b_pyramid=2 / b_adapt=1 / b_bias=0 / direct=1 / weightb=1 / open_gop=0 / weightp=2 / keyint=250 / keyint_min=24 / scenecut=40 / intra_refresh=0 / rc_lookahead=40 / rc=2pass / mbtree=1 / bitrate=8638 / ratetol=1.0 / qcomp=0.60 / qpmin=10 / qpmax=51 / qpstep=4 / cplxblur=20.0 / qblur=0.5 / ip_ratio=1.40 / aq=1:1.00
  25. Language                                 : English
  26. Default                                  : No
  27. Forced                                   : No

  28. Audio
  29. ID                                       : 2
  30. Format                                   : DTS
  31. Format/Info                              : Digital Theater Systems
  32. Codec ID                                 : A_DTS
  33. Duration                                 : 1 h 52 min
  34. Bit rate mode                            : Constant
  35. Bit rate                                 : 1 509 kb/s
  36. Channel(s)                               : 6 channels
  37. Channel layout                           : C L R Ls Rs LFE
  38. Sampling rate                            : 48.0 kHz
  39. Frame rate                               : 93.750 FPS (512 SPF)
  40. Bit depth                                : 24 bits
  41. Compression mode                         : Lossy
  42. Stream size                              : 1.18 GiB (15%)
  43. Default                                  : Yes
  44. Forced                                   : No

  45. Text
  46. ID                                       : 3
  47. Format                                   : UTF-8
  48. Codec ID                                 : S_TEXT/UTF8
  49. Codec ID/Info                            : UTF-8 Plain Text
  50. Default                                  : Yes
  51. Forced                                   : No
复制代码






                                       
                                       

                                       
                                       
                                       




回复

使用道具 举报

懒得打字嘛,点击右侧快捷回复 【右侧内容,后台自定义】
您需要登录后才可以回帖 登录 | 立即加入

本版积分规则

Archiver|小黑屋| 蓝光电影网 |网站地图

Copyright © 2021 Comsenz Inc. Powered by 蓝光电影网

蓝光电影网

本站内容由用户自主分享和转载自互联网,转载目的在于传递更多信息,并不代表本网赞同其观点和对其真实性负责。

如有侵权、违反国家法律政策行为,请联系我们,我们会第一时间及时清除和处理!

举报反馈邮箱:[email protected]

快速回复 返回顶部 返回列表