找回密码

蓝光电影网

查看: 15|回复: 0

[剧情] 重生男人 Repo.Men.2010.UNRATED.1080p.BluRay.x264-MACHD 8.74GB

[复制链接]
蓝光币
515
发表于 2020-11-4 11:02:24 | 显示全部楼层 |阅读模式


◎译  名 更生汉子/Repossession Men/接管人/索命条码(台)/追讨人/更生曼波
◎片  名 Repo Men
◎年  代 2010
◎产  地 美国,加拿大
◎类  别 剧情 / 行动 / 科幻 / 惊悚 / 犯罪
◎语  言 英语
◎上映日期 2010-03-19(美国/加拿大)
◎IMDb评分  6.3/10 from 100419 users
◎IMDb链接  https://www.imdb.com/title/tt1053424/
◎豆瓣评分 7.3/10 from 24359 users
◎豆瓣链接 https://movie.douban.com/subject/2265778/
◎片  长 111 分钟
◎导  演 米格尔·萨普什尼克 Miguel Sapochnik
◎编  剧 加里特·勒纳 Garrett Lerner
◎主  演 裘德·洛 Jude Law
       福里斯特·惠特克 Forest Whitaker
       艾莉丝·布拉加 Alice Braga
       列维·施瑞博尔 Liev Schreiber
       卡里斯·范·侯登 Carice van Houten
       钱德勒·坎特布瑞 Chandler Canterbury
       乔·平格 Joe Pingue
       莉萨·拉皮拉 Liza Lapira
       蒂凡尼·埃斯佩森 Tiffany Espensen
       伊薇特·尼科尔·布朗 Yvette Nicole Brown
       罗伯特·菲茨杰拉德·迪格斯 RZA
       坦娅·克拉克 Tanya Clarke
       拉夫·洛 Raff Law
       马蒂·亚当斯 Marty Adams
       丹尼尔·卡什 Daniel Kash
       多米尼克·库佐科里亚 Dominic Cuzzocrea
       卡洛斯·迪亚兹 Carlos Diaz
       坦妮斯·伯内特 Tannis Burnett
       迈克尔·克莱姆 Michael Cram
       西蒙·诺斯伍德 Simon Northwood
       约翰·麦克唐纳 John MacDonald
       尼尔·怀特利 Neil Whitely
       迈克尔·格雷耶斯基 Michal Grajewski
       丹尼斯·秋山 Denis Akiyama
       罗布·阿切尔 Rob Archer
       罗宾·阿特金·唐斯 Robin Atkin Downes
       加万·福克斯 Gavin Fox
       Larry Gilman
       Christina Giuseppe Silva
       Ashleigh Hubbard
       约翰·雷吉扎莫 John Leguizamo
       威尔·麦克法登 Will McFadden
       克里斯蒂娜·佩希奇 Kristina Pesic
       Sherry Shaoling
       丽娜·苏 Lina So
       Devon Tucker
◎标  签 科幻 | 美国 | JudeLaw | 裘德·洛 | 行动 | 惊悚 | 美国电影 | 2010
◎简  介


  未来,随着科技的不竭进步,人类医学也到达史无前例的高度。当你某个器官得了疾病时,不用担忧自己会死于横死,也不必苦苦期待指日可待的捐赠器官,只要移植人造器官即可回归一般的生活。固然,全国没有免费的午饭,全新的器官陪伴着高昂的采办金,受移植者一旦没法承当这笔用度,将面临被杀戮并被夺走器官的悲凉命运。
  
  雷米(裘德·洛 Jude Law 饰)隶属这家销售器官的同盟公司,他的工作是追杀那些迟延还款的客人。凭仗这份刻毒无情的工作,他过着养尊处优的生活。但是恶运忽然来临,他因沉痾移植了同盟的人造心脏,更因没法了偿金钱而遭到昔日好友的追杀。猎人和猎物的身份一夜之间对换……
◎获奖情况
  第12届美国青少年挑选奖 ?(2010)
  最好科幻电影男演员(提名) 裘德·洛
  1. Video
  2. ID                                       : 1
  3. Format                                   : AVC
  4. Format/Info                              : Advanced Video Codec
  5. Format profile                           : [email protected]
  6. Format settings                          : CABAC / 5 Ref Frames
  7. Format settings, CABAC                   : Yes
  8. Format settings, Reference frames        : 5 frames
  9. Codec ID                                 : V_MPEG4/ISO/AVC
  10. Duration                                 : 1 h 59 min
  11. Bit rate                                 : 8 956 kb/s
  12. Width                                    : 1 920 pixels
  13. Height                                   : 816 pixels
  14. Display aspect ratio                     : 2.35:1
  15. Frame rate mode                          : Constant
  16. Frame rate                               : 23.976 FPS
  17. Color space                              : YUV
  18. Chroma subsampling                       : 4:2:0
  19. Bit depth                                : 8 bits
  20. Scan type                                : Progressive
  21. Bits/(Pixel*Frame)                       : 0.238
  22. Stream size                              : 7.31 GiB (84%)
  23. Writing library                          : x264 core 100 r1659 57b2e56
  24. Encoding settings                        : cabac=1 / ref=5 / deblock=1:0:0 / analyse=0x3:0x113 / me=umh / subme=7 / psy=1 / psy_rd=1.00:0.00 / mixed_ref=1 / me_range=16 / chroma_me=1 / trellis=1 / 8x8dct=1 / cqm=0 / deadzone=21,11 / fast_pskip=1 / chroma_qp_offset=-2 / threads=12 / sliced_threads=0 / nr=0 / decimate=1 / interlaced=0 / constrained_intra=0 / bframes=3 / b_pyramid=2 / b_adapt=1 / b_bias=0 / direct=1 / weightb=1 / open_gop=0 / weightp=2 / keyint=250 / keyint_min=25 / scenecut=40 / intra_refresh=0 / rc_lookahead=40 / rc=2pass / mbtree=1 / bitrate=8956 / ratetol=1.0 / qcomp=0.60 / qpmin=10 / qpmax=51 / qpstep=4 / cplxblur=20.0 / qblur=0.5 / ip_ratio=1.40 / aq=1:1.00
  25. Language                                 : English
  26. Default                                  : Yes
  27. Forced                                   : No

  28. Audio
  29. ID                                       : 2
  30. Format                                   : DTS
  31. Format/Info                              : Digital Theater Systems
  32. Muxing mode                              : Header stripping
  33. Codec ID                                 : A_DTS
  34. Duration                                 : 1 h 59 min
  35. Bit rate mode                            : Constant
  36. Bit rate                                 : 1 509 kb/s
  37. Channel(s)                               : 6 channels
  38. Channel layout                           : C L R Ls Rs LFE
  39. Sampling rate                            : 48.0 kHz
  40. Frame rate                               : 93.750 FPS (512 SPF)
  41. Bit depth                                : 24 bits
  42. Compression mode                         : Lossy
  43. Stream size                              : 1.26 GiB (14%)
  44. Language                                 : English
  45. Default                                  : Yes
  46. Forced                                   : No

  47. Text
  48. ID                                       : 3
  49. Format                                   : UTF-8
  50. Codec ID                                 : S_TEXT/UTF8
  51. Codec ID/Info                            : UTF-8 Plain Text
  52. Language                                 : English
  53. Default                                  : No
  54. Forced                                   : No

  55. Menu
  56. 00:00:00.000                             : en:00:00:00.000
  57. 00:05:25.659                             : en:00:05:25.659
  58. 00:11:04.080                             : en:00:11:04.080
  59. 00:17:51.654                             : en:00:17:51.654
  60. 00:24:19.541                             : en:00:24:19.541
  61. 00:27:57.259                             : en:00:27:57.259
  62. 00:32:25.068                             : en:00:32:25.068
  63. 00:41:45.503                             : en:00:41:45.503
  64. 00:48:22.858                             : en:00:48:22.858
  65. 00:52:38.906                             : en:00:52:38.906
  66. 00:56:50.157                             : en:00:56:50.157
  67. 01:02:16.691                             : en:01:02:16.691
  68. 01:06:25.481                             : en:01:06:25.481
  69. 01:11:15.313                             : en:01:11:15.313
  70. 01:21:25.839                             : en:01:21:25.839
  71. 01:27:19.025                             : en:01:27:19.025
  72. 01:34:07.809                             : en:01:34:07.809
  73. 01:40:56.050                             : en:01:40:56.050
  74. 01:49:25.016                             : en:01:49:25.016
  75. 01:53:19.459                             : en:01:53:19.459
复制代码





                                       
                                       

                                       
                                       
                                       




回复

使用道具 举报

懒得打字嘛,点击右侧快捷回复 【右侧内容,后台自定义】
您需要登录后才可以回帖 登录 | 立即加入

本版积分规则

Archiver|小黑屋| 蓝光电影网 |网站地图

Copyright © 2021 Comsenz Inc. Powered by 蓝光电影网

蓝光电影网

本站内容由用户自主分享和转载自互联网,转载目的在于传递更多信息,并不代表本网赞同其观点和对其真实性负责。

如有侵权、违反国家法律政策行为,请联系我们,我们会第一时间及时清除和处理!

举报反馈邮箱:[email protected]

快速回复 返回顶部 返回列表