找回密码

蓝光电影网

查看: 24|回复: 0

[剧情] 十字小溪/十字溪流 Cross.Creek.1983.1080p.AMZN.WEBRip.DDP2.0.x264-alfaHD 8.31GB

[复制链接]
蓝光币
623
发表于 2021-8-20 01:11:15 | 显示全部楼层 |阅读模式


◎译  名 十字小溪/十字溪流
◎片  名 Cross Creek
◎年  代 1983
◎产  地 美国
◎类  别 剧情 / 列传
◎语  言 英语
◎上映日期 1983-09-21
◎IMDb评分  7/10 from 1536 users
◎IMDb链接  https://www.imdb.com/title/tt0085380/
◎豆瓣评分 8.0/10 from 163 users
◎豆瓣链接 https://movie.douban.com/subject/1303284/
◎片  长 127 分钟
◎导  演 马丁·里特 Martin Ritt
◎编  剧 达莱娜·扬 Dalene Young / 玛乔丽·金南·罗林斯 Marjorie Kinnan Rawlings
◎主  演 玛丽·斯汀伯根 Mary Steenburgen
       彼德·考约特 Peter Coyote
       雷普·汤恩 Rip Torn
       乔安娜·迈尔斯 Joanna Miles
       Bo Rucker
       Dana Hill
       艾克·艾森曼 Ike Eisenmann
       Norton Baskin
       马尔科姆·麦克道威尔 Malcolm McDowell
       卡里·加菲 Cary Guffey
       阿尔法·伍达德 Alfre Woodard
       杰伊·桑德斯 Jay O. Sanders
◎标  签 列传 | 美国 | 故乡 | 美国电影 | 文艺 | 电影 | 恋爱 | 剧情
◎简  介


  本片报告了今世著名小说家凯南.罗凌斯的实在故事。为更好的写作,女作家于1928年隐退到一个与世隔断的非洲森林,阔别纽约舒适的生活,婚姻,家庭,她来到这里单独体味清幽,让思惟自在驰骋。纯洁自然的乡野和浑厚心爱的邻里成了她作品的首要题材,在这块地盘上,这群人中心,她找到了灵感和爱。
◎获奖情况
  第56届奥斯卡金像奖 ?(1984)
  最好男配角(提名) 雷普·汤恩
  最好女配角(提名) 阿尔法·伍达德
  最好打扮设想(提名) 乔·汤普金斯
  最好原创配乐(提名) 利奥纳德·罗森曼
  
  第36届戛纳电影节 ?(1983)
  主比赛单元金棕榈奖(提名) 马丁·里特
  1. Video
  2. ID                                       : 1
  3. Format                                   : AVC
  4. Format/Info                              : Advanced Video Codec
  5. Format profile                           : [email protected]
  6. Format settings                          : CABAC / 4 Ref Frames
  7. Format settings, CABAC                   : Yes
  8. Format settings, Reference frames        : 4 frames
  9. Codec ID                                 : V_MPEG4/ISO/AVC
  10. Duration                                 : 2 h 0 min
  11. Bit rate mode                            : Constant
  12. Bit rate                                 : 10 000 kb/s
  13. Width                                    : 1 920 pixels
  14. Height                                   : 1 040 pixels
  15. Display aspect ratio                     : 1.85:1
  16. Frame rate mode                          : Constant
  17. Frame rate                               : 24.000 FPS
  18. Color space                              : YUV
  19. Chroma subsampling                       : 4:2:0
  20. Bit depth                                : 8 bits
  21. Scan type                                : Progressive
  22. Bits/(Pixel*Frame)                       : 0.209
  23. Stream size                              : 8.12 GiB (98%)
  24. Default                                  : Yes
  25. Forced                                   : No
  26. Color range                              : Limited
  27. Color primaries                          : BT.709
  28. Transfer characteristics                 : BT.709
  29. Matrix coefficients                      : BT.709
  30. Audio
  31. ID                                       : 2
  32. Format                                   : E-AC-3
  33. Format/Info                              : Enhanced AC-3
  34. Commercial name                          : Dolby Digital Plus
  35. Codec ID                                 : A_EAC3
  36. Duration                                 : 2 h 0 min
  37. Bit rate mode                            : Constant
  38. Bit rate                                 : 224 kb/s
  39. Channel(s)                               : 2 channels
  40. Channel layout                           : L R
  41. Sampling rate                            : 48.0 kHz
  42. Frame rate                               : 31.250 FPS (1536 SPF)
  43. Compression mode                         : Lossy
  44. Stream size                              : 193 MiB (2%)
  45. Language                                 : English
  46. Service kind                             : Complete Main
  47. Default                                  : Yes
  48. Forced                                   : No
  49. Text
  50. ID                                       : 3
  51. Format                                   : UTF-8
  52. Codec ID                                 : S_TEXT/UTF8
  53. Codec ID/Info                            : UTF-8 Plain Text
  54. Duration                                 : 1 h 58 min
  55. Bit rate                                 : 43 b/s
  56. Count of elements                        : 1492
  57. Stream size                              : 38.2 KiB (0%)
  58. Title                                    : SDH
  59. Language                                 : English
  60. Default                                  : No
  61. Forced                                   : No
  62. Menu
  63. 00:00:00.000                             : en:Studio logos
  64. 00:00:20.000                             : en:Opening credits
  65. 00:02:12.000                             : en:Marjorie reflects upon her life & has a dispute with her husband, car interior & country club
  66. 00:06:07.000                             : en:Marjorie\'s car breaks down & norton offers her help, market & norton\'s hotel
  67. 00:09:16.000                             : en:Norton tells marjorie about the area & asks about her book, car interior
  68. 00:11:11.000                             : en:Marjorie is determined to prove norton wrong, marjorie\'s cottage
  69. 00:13:43.000                             : en:Marjorie investigates the orange grove & begins cleaning up, marjorie\'s cottage
  70. 00:16:22.000                             : en:Geechee insists on working for marjorie, marjorie\'s cottage
  71. 00:18:13.000                             : en:Mr. turner & ellie introduce themselves to marjorie, marjorie\'s cottage
  72. 00:20:56.000                             : en:Marjorie sets rules for geechee & receives an invitation from ellie, marjorie\'s cottage
  73. 00:24:20.000                             : en:Norton brings marjorie a gift, marjorie\'s cottage
  74. 00:27:45.000                             : en:Marjorie attends the pound party & the children put on a show, mr. turner\'s cottage
  75. 00:32:14.000                             : en:Mr. turner asks ellie to tie her fawn in the backyard & offers marjorie a ride home, mr. turner\'s cottage
  76. 00:36:55.000                             : en:Mr. turner introduces marjorie to paul, boat & paul\'s hut
  77. 00:40:22.000                             : en:Mr. turner brings marjorie a gift & offers her gardening advice, marjorie\'s garden
  78. 00:42:21.000                             : en:Geechee & paul\'s help allows marjorie to write
  79. 00:44:25.000                             : en:Geechee asks marjorie to write a letter, marjorie\'s cottage
  80. 00:46:24.000                             : en:Marjorie helps paul & tim build a dam
  81. 00:49:02.000                             : en:Marjorie gives water to tim & his wife, marjorie\'s cottage
  82. 00:51:06.000                             : en:Marjorie mails max her story & finishes the dam with her crew, post office & marjorie\'s cottage
  83. 00:54:12.000                             : en:Marjorie has norton over for dinner, marjorie\'s cottage
  84. 00:57:02.000                             : en:Marjorie asks tim\'s wife if she would like to help around the house, marjorie\'s cottage
  85. 00:59:53.000                             : en:Marjorie receives a letter from max
  86. 01:02:30.000                             : en:Max\'s letter upsets & inspires marjorie, marjorie\'s cottage
  87. 01:05:52.000                             : en:Mr. turner\'s hogs return in the night, marjorie\'s cottage
  88. 01:07:37.000                             : en:Mr. turner has a grievance with marjorie, marjorie\'s cottage
  89. 01:11:32.000                             : en:Norton asks to read marjorie\'s writing, marjorie\'s cottage
  90. 01:14:26.000                             : en:Marjorie & the farmers\' hard work pays off, orange grove & marjorie\'s cottage
  91. 01:16:23.000                             : en:Leroy reunites with geechee & causes a problem for marjorie, marjorie\'s cottage
  92. 01:18:45.000                             : en:Geechee prepares to leave & asks marjorie a question, marjorie\'s cottage
  93. 01:22:48.000                             : en:Marjorie & norton attend ellie\'s birthday party, mr. turner\'s cottage
  94. 01:26:22.000                             : en:Ellie\'s fawn escapes from its pen, mr. turner\'s cottage
  95. 01:29:54.000                             : en:Mr. turner explains his problem with the fawn to marjorie, mr. turner\'s garden
  96. 01:31:35.000                             : en:Marjorie lets norton read her story & they discuss their relationship, marjorie\'s cottage
  97. 01:34:28.000                             : en:Marjorie explains her feelings
  98. 01:37:54.000                             : en:Max makes a decision about marjorie\'s story, marjorie\'s cottage
  99. 01:39:47.000                             : en:Ellie has an emergency & seeks marjorie\'s help, mr. turner\'s garden
  100. 01:42:32.000                             : en:Mr. turner attracts the sheriff\'s attention & searches for ellie, town & mr. turner\'s cottage
  101. 01:45:21.000                             : en:The sheriff catches up with mr. turner
  102. 01:47:31.000                             : en:Marjorie goes off alone & geechee waits for her return, boat & marjorie\'s cottage
  103. 01:51:59.000                             : en:Marjorie gets help with her crops & speaks with ellie, orange grove
  104. 01:54:31.000                             : en:Marjorie gives norton an answer, marjorie\'s cottage
  105. 01:56:07.000                             : en:Marjorie explains how she has become a part of cross creek, marjorie\'s cottage & river
  106. 01:58:35.000                             : en:End credits
复制代码






                                       
                                       

                                       
                                       
                                       




回复

使用道具 举报

懒得打字嘛,点击右侧快捷回复 【右侧内容,后台自定义】
您需要登录后才可以回帖 登录 | 立即加入

本版积分规则

Archiver|小黑屋| 蓝光电影网 |网站地图

Copyright © 2021 Comsenz Inc. Powered by 蓝光电影网

蓝光电影网

本站内容由用户自主分享和转载自互联网,转载目的在于传递更多信息,并不代表本网赞同其观点和对其真实性负责。

如有侵权、违反国家法律政策行为,请联系我们,我们会第一时间及时清除和处理!

举报反馈邮箱:[email protected]

快速回复 返回顶部 返回列表