找回密码

蓝光电影网

查看: 20|回复: 0

[剧情] 比邻星/媽媽是個太空人(澳) Proxima.2019.FRENCH.1080p.WEBRip.x264-VXT 2.04GB

[复制链接]
蓝光币
515
发表于 2021-8-20 01:11:23 | 显示全部楼层 |阅读模式


◎译  名 比邻星/媽媽是個太空人(澳)/星星知我心(台)
◎片  名 Proxima
◎年  代 2019
◎产  地 法国,德国
◎类  别 剧情
◎语  言 法语,英语,俄语,德语
◎上映日期 2019-09-07(多伦多电影节) / 2019-11-27(法国)
◎IMDb评分  6.4/10 from 3289 users
◎IMDb链接  https://www.imdb.com/title/tt7374926/
◎豆瓣评分 6.8/10 from 2157 users
◎豆瓣链接 https://movie.douban.com/subject/27133567/
◎片  长 107分钟
◎导  演 艾丽斯·威诺古尔 Alice Winocour
◎编  剧 艾丽斯·威诺古尔 Alice Winocour / 让-史蒂芬·布朗 Jean-Stéphane Bron
◎主  演 伊娃·格林 Eva Green
       马特·狄龙 Matt Dillon
       阿列克谢·法捷耶夫 Aleksey Fateev
       拉斯·艾丁格 Lars Eidinger
       桑德拉·惠勒 Sandra Hüller
       格莱戈尔·科林  Grégoire Colin
◎标  签 法国 | 女性 | 伊娃·格林 | 科幻 | 法国电影 | 2019 | 剧情 | EvaGreen
◎简  介


  威诺古尔暗示该片就是聚焦宇航员在去往太空履利用命之前的预备工作,“活动正式停止之前的预备工作对于宇航员来说是最难熬的一部分,由于你一旦到了太空中就万事俱备,而在此之前你要与支属们作别,还要为身材做充沛预备来顺应情况,是关于你若何将恐惧与疼痛安置于生命之上的概念。我们意图是将其形成一个超级女豪杰兼普通母亲的脚色,母亲这一脚色在其他影片里凡是都很弱,是时辰证实女性不但可所以一位母亲,还可以成为一位巨大的宇航员。”该故事基于威诺古尔本人同自己女儿的分手履历,伊娃·格林将会接管法国宇航员托马斯·佩斯凯的培训。
◎获奖情况
  第45届法国凯撒电影奖 ?(2020)
  最好女配角(提名) 伊娃·格林
  
  第44届多伦多国际电影节 ?(2019)
  站台奖(提名) 艾丽斯·威诺古尔
  
  第67届圣塞巴斯蒂安国际电影节 ?(2019)
  金贝壳奖(提名) 艾丽斯·威诺古尔
  评审团出格奖 艾丽斯·威诺古尔
  1. Video
  2. ID                                       : 1
  3. Format                                   : AVC
  4. Format/Info                              : Advanced Video Codec
  5. Format profile                           : [email protected]
  6. Format settings                          : CABAC / 4 Ref Frames
  7. Format settings, CABAC                   : Yes
  8. Format settings, Reference frames        : 4 frames
  9. Codec ID                                 : avc1
  10. Codec ID/Info                            : Advanced Video Coding
  11. Duration                                 : 1 h 47 min
  12. Bit rate                                 : 2 500 kb/s
  13. Width                                    : 1 916 pixels
  14. Height                                   : 1 036 pixels
  15. Display aspect ratio                     : 1.85:1
  16. Frame rate mode                          : Constant
  17. Frame rate                               : 24.000 FPS
  18. Color space                              : YUV
  19. Chroma subsampling                       : 4:2:0
  20. Bit depth                                : 8 bits
  21. Scan type                                : Progressive
  22. Bits/(Pixel*Frame)                       : 0.052
  23. Stream size                              : 1.87 GiB (92%)
  24. Writing library                          : x264 core 152 r2851M ba24899
  25. Encoding settings                        : cabac=1 / ref=4 / deblock=1:-1:-1 / analyse=0x3:0x113 / me=umh / subme=9 / psy=1 / psy_rd=1.00:0.15 / mixed_ref=1 / me_range=24 / chroma_me=1 / trellis=2 / 8x8dct=1 / cqm=0 / deadzone=21,11 / fast_pskip=1 / chroma_qp_offset=-3 / threads=16 / lookahead_threads=4 / sliced_threads=0 / nr=0 / decimate=1 / interlaced=0 / bluray_compat=0 / constrained_intra=0 / bframes=3 / b_pyramid=2 / b_adapt=2 / b_bias=0 / direct=3 / weightb=1 / open_gop=0 / weightp=2 / keyint=250 / keyint_min=25 / scenecut=40 / intra_refresh=0 / rc_lookahead=50 / rc=2pass / mbtree=1 / bitrate=2500 / ratetol=1.0 / qcomp=0.60 / qpmin=0 / qpmax=69 / qpstep=4 / cplxblur=20.0 / qblur=0.5 / vbv_maxrate=31250 / vbv_bufsize=31250 / nal_hrd=none / filler=0 / ip_ratio=1.40 / aq=3:1.00
  26. Encoded date                             : UTC 2020-09-24 09:53:39
  27. Tagged date                              : UTC 2020-09-24 09:53:39
  28. Codec configuration box                  : avcC
  29. Audio
  30. ID                                       : 2
  31. Format                                   : AAC LC
  32. Format/Info                              : Advanced Audio Codec Low Complexity
  33. Codec ID                                 : mp4a-40-2
  34. Duration                                 : 1 h 47 min
  35. Duration_LastFrame                       : -11 ms
  36. Bit rate mode                            : Constant
  37. Bit rate                                 : 224 kb/s
  38. Channel(s)                               : 6 channels
  39. Channel layout                           : C L R Ls Rs LFE
  40. Sampling rate                            : 48.0 kHz
  41. Frame rate                               : 46.875 FPS (1024 SPF)
  42. Compression mode                         : Lossy
  43. Stream size                              : 172 MiB (8%)
  44. Language                                 : French
  45. Default                                  : Yes
  46. Alternate group                          : 1
  47. Encoded date                             : UTC 2020-09-24 09:53:39
  48. Tagged date                              : UTC 2020-09-24 09:53:39
复制代码





                                       
                                       

                                       
                                       
                                       




回复

使用道具 举报

懒得打字嘛,点击右侧快捷回复 【右侧内容,后台自定义】
您需要登录后才可以回帖 登录 | 立即加入

本版积分规则

Archiver|小黑屋| 蓝光电影网 |网站地图

Copyright © 2021 Comsenz Inc. Powered by 蓝光电影网

蓝光电影网

本站内容由用户自主分享和转载自互联网,转载目的在于传递更多信息,并不代表本网赞同其观点和对其真实性负责。

如有侵权、违反国家法律政策行为,请联系我们,我们会第一时间及时清除和处理!

举报反馈邮箱:[email protected]

快速回复 返回顶部 返回列表