找回密码

蓝光电影网

查看: 24|回复: 0

[剧情] 自由的语言 Lingua.Franca.2019.1080p.NF.WEBRip.DD5.1.x264-PTP 4.86GB

[复制链接]
蓝光币
515
发表于 2021-8-20 01:11:33 | 显示全部楼层 |阅读模式


◎译  名 自在的说话/Brooklyn Secret
◎片  名 Lingua Franca
◎年  代 2019
◎产  地 美国,菲律宾
◎类  别 剧情
◎语  言 英语,他加禄语
◎上映日期 2019-08-28(威尼斯电影节) / 2020-08-26(美国)
◎IMDb评分  6.4/10 from 210 users
◎IMDb链接  https://www.imdb.com/title/tt8943224/
◎豆瓣评分 /10 from 0 users
◎豆瓣链接 https://movie.douban.com/subject/33383633/
◎片  长 88分钟
◎导  演 Isabel Sandoval
◎编  剧 Isabel Sandoval
◎主  演 埃蒙·法伦 Eamon Farren
       林恩·科恩 Lynn Cohen
       列夫·戈恩 Lev Gorn
       P·J·波多斯基 P.J. Boudousqué
       迪马·艾特肯 Deema Aitken
       Isabel Sandoval
◎标  签 剧情 | LGBTQ | LGBT | 美国电影 | 威尼斯电影节 | 典范 | P-VeniceE入围威尼斯日 | Isabel_Sandoval
◎简  介


  Olivia (Isabel Sandoval), an undocumented Filipino transwoman, works as a caregiver to Olga (Lynn Cohen), an elderly Russian woman, in Brighton Beach, Brooklyn. When Olivia runs out of options to attain legal status in the US, she becomes romantically involved with Alex (Eamon Farren), Olga's adult grandson, in the pursuit of a marriage-based green card.
◎获奖情况
  第76届威尼斯电影节 ?(2019)
  欧洲电影同盟奖威尼斯日最好影片(提名) IsabelSandoval
  1. Video
  2. ID                                       : 1
  3. Format                                   : AVC
  4. Format/Info                              : Advanced Video Codec
  5. Format profile                           : [email protected]
  6. Format settings                          : CABAC / 4 Ref Frames
  7. Format settings, CABAC                   : Yes
  8. Format settings, Reference frames        : 4 frames
  9. Codec ID                                 : V_MPEG4/ISO/AVC
  10. Duration                                 : 1 h 34 min
  11. Bit rate mode                            : Variable
  12. Bit rate                                 : 7 001 kb/s
  13. Maximum bit rate                         : 20.0 Mb/s
  14. Width                                    : 1 920 pixels
  15. Height                                   : 1 080 pixels
  16. Display aspect ratio                     : 16:9
  17. Frame rate mode                          : Constant
  18. Frame rate                               : 24.000 FPS
  19. Color space                              : YUV
  20. Chroma subsampling                       : 4:2:0
  21. Bit depth                                : 8 bits
  22. Scan type                                : Progressive
  23. Bits/(Pixel*Frame)                       : 0.141
  24. Stream size                              : 4.61 GiB (95%)
  25. Writing library                          : x264 core 148 r2722 1b0121b
  26. Encoding settings                        : cabac=1 / ref=4 / deblock=1:0:0 / analyse=0x3:0x111 / me=umh / subme=10 / psy=1 / psy_rd=1.00:0.00 / mixed_ref=1 / me_range=120 / chroma_me=1 / trellis=2 / 8x8dct=1 / cqm=0 / deadzone=21,11 / fast_pskip=1 / chroma_qp_offset=-2 / threads=8 / lookahead_threads=2 / sliced_threads=0 / nr=0 / decimate=1 / interlaced=0 / bluray_compat=0 / stitchable=1 / constrained_intra=0 / bframes=16 / b_pyramid=2 / b_adapt=2 / b_bias=0 / direct=3 / weightb=1 / open_gop=0 / weightp=2 / keyint=240 / keyint_min=121 / scenecut=0 / intra_refresh=0 / rc_lookahead=240 / rc=crf / mbtree=1 / crf=16.0 / qcomp=0.50 / qpmin=6 / qpmax=51 / qpstep=4 / vbv_maxrate=20000 / vbv_bufsize=25000 / crf_max=0.0 / nal_hrd=vbr / filler=0 / ip_ratio=1.40 / aq=1:0.80
  27. Language                                 : English
  28. Default                                  : Yes
  29. Forced                                   : No
  30. Audio
  31. ID                                       : 2
  32. Format                                   : AC-3
  33. Format/Info                              : Audio Coding 3
  34. Commercial name                          : Dolby Digital
  35. Codec ID                                 : A_AC3
  36. Duration                                 : 1 h 34 min
  37. Bit rate mode                            : Constant
  38. Bit rate                                 : 384 kb/s
  39. Channel(s)                               : 6 channels
  40. Channel layout                           : L R C LFE Ls Rs
  41. Sampling rate                            : 48.0 kHz
  42. Frame rate                               : 31.250 FPS (1536 SPF)
  43. Compression mode                         : Lossy
  44. Stream size                              : 259 MiB (5%)
  45. Language                                 : English
  46. Service kind                             : Complete Main
  47. Default                                  : Yes
  48. Forced                                   : No
  49. Text
  50. ID                                       : 3
  51. Format                                   : UTF-8
  52. Codec ID                                 : S_TEXT/UTF8
  53. Codec ID/Info                            : UTF-8 Plain Text
  54. Duration                                 : 1 h 26 min
  55. Bit rate                                 : 42 b/s
  56. Count of elements                        : 874
  57. Stream size                              : 27.1 KiB (0%)
  58. Language                                 : English
  59. Default                                  : Yes
  60. Forced                                   : No
复制代码





                                       
                                       

                                       
                                       
                                       




回复

使用道具 举报

懒得打字嘛,点击右侧快捷回复 【右侧内容,后台自定义】
您需要登录后才可以回帖 登录 | 立即加入

本版积分规则

Archiver|小黑屋| 蓝光电影网 |网站地图

Copyright © 2021 Comsenz Inc. Powered by 蓝光电影网

蓝光电影网

本站内容由用户自主分享和转载自互联网,转载目的在于传递更多信息,并不代表本网赞同其观点和对其真实性负责。

如有侵权、违反国家法律政策行为,请联系我们,我们会第一时间及时清除和处理!

举报反馈邮箱:[email protected]

快速回复 返回顶部 返回列表