找回密码

蓝光电影网

查看: 21|回复: 0

[剧情] 厕所和女人 Toilet.and.Women.2012.JAPANESE.1080p.WEBRip.x264-VXT 1.50GB

[复制链接]
蓝光币
515
发表于 2021-8-20 01:11:46 | 显示全部楼层 |阅读模式


◎译  名 茅厕和女人/Donzumari benki/Helpless and Reckless/Toilet and Women/末路便器
◎片  名 どんずまり便器
◎年  代 2012
◎产  地 日本
◎类  别 剧情
◎语  言 日语
◎上映日期 2012-04-14(日本)
◎IMDb评分  5.2/10 from 29 users
◎IMDb链接  https://www.imdb.com/title/tt2330829/
◎豆瓣评分 5.4/10 from 69 users
◎豆瓣链接 https://movie.douban.com/subject/5318708/
◎片  长 81分钟
◎主  演 菜叶菜 Nahana
       玄觉悠子 Yuko Genkaku
◎标  签 日本 | 情色 | 日本电影 | 小栗はるひ | Cult | 2012 | 青春 | 日影
◎简  介


  性情激进的奈留美(菜叶菜 饰)和性情温顺的圭(中村邦晃 饰)是姐弟俩。自从年少双亲变乱过世以后两人相依为命。奈留美因殴打同事被判入狱,服刑期满后,奈留美出狱回抵家中,发现圭和女友加奈(菅原佳子 饰)同居在一路。她决议把弟弟夺返来,她告诉了加奈一个自己和弟弟之间的奥秘……
  
  这是青年女性导演小栗春日25岁时的作品,主演菜叶菜凭仗此片获得2011年夕张国际FANTASTIC电影节最好女演员奖。
  1. Video
  2. ID                                       : 1
  3. Format                                   : AVC
  4. Format/Info                              : Advanced Video Codec
  5. Format profile                           : [email protected]
  6. Format settings                          : CABAC / 4 Ref Frames
  7. Format settings, CABAC                   : Yes
  8. Format settings, Reference frames        : 4 frames
  9. Codec ID                                 : avc1
  10. Codec ID/Info                            : Advanced Video Coding
  11. Duration                                 : 1 h 18 min
  12. Bit rate                                 : 2 500 kb/s
  13. Width                                    : 1 920 pixels
  14. Height                                   : 1 080 pixels
  15. Display aspect ratio                     : 16:9
  16. Frame rate mode                          : Constant
  17. Frame rate                               : 29.970 (29970/1000/189150) FPS
  18. Color space                              : YUV
  19. Chroma subsampling                       : 4:2:0
  20. Bit depth                                : 8 bits
  21. Scan type                                : Progressive
  22. Bits/(Pixel*Frame)                       : 0.040
  23. Stream size                              : 1.37 GiB (91%)
  24. Writing library                          : x264 core 152 r2851M ba24899
  25. Encoding settings                        : cabac=1 / ref=4 / deblock=1:-1:-1 / analyse=0x3:0x113 / me=umh / subme=9 / psy=1 / psy_rd=1.00:0.15 / mixed_ref=1 / me_range=24 / chroma_me=1 / trellis=2 / 8x8dct=1 / cqm=0 / deadzone=21,11 / fast_pskip=1 / chroma_qp_offset=-3 / threads=16 / lookahead_threads=4 / sliced_threads=0 / nr=0 / decimate=1 / interlaced=0 / bluray_compat=0 / constrained_intra=0 / bframes=3 / b_pyramid=2 / b_adapt=2 / b_bias=0 / direct=3 / weightb=1 / open_gop=0 / weightp=2 / keyint=250 / keyint_min=25 / scenecut=40 / intra_refresh=0 / rc_lookahead=50 / rc=2pass / mbtree=1 / bitrate=2500 / ratetol=1.0 / qcomp=0.60 / qpmin=0 / qpmax=69 / qpstep=4 / cplxblur=20.0 / qblur=0.5 / vbv_maxrate=31250 / vbv_bufsize=31250 / nal_hrd=none / filler=0 / ip_ratio=1.40 / aq=3:1.00
  26. Encoded date                             : UTC 2020-09-23 13:35:51
  27. Tagged date                              : UTC 2020-09-23 13:35:51
  28. Codec configuration box                  : avcC
  29. Audio
  30. ID                                       : 2
  31. Format                                   : AAC LC
  32. Format/Info                              : Advanced Audio Codec Low Complexity
  33. Codec ID                                 : mp4a-40-2
  34. Duration                                 : 1 h 18 min
  35. Bit rate mode                            : Constant
  36. Bit rate                                 : 224 kb/s
  37. Channel(s)                               : 2 channels
  38. Channel layout                           : L R
  39. Sampling rate                            : 48.0 kHz
  40. Frame rate                               : 46.875 FPS (1024 SPF)
  41. Compression mode                         : Lossy
  42. Stream size                              : 126 MiB (8%)
  43. Language                                 : Japanese
  44. Default                                  : Yes
  45. Alternate group                          : 1
  46. Encoded date                             : UTC 2020-09-23 13:35:51
  47. Tagged date                              : UTC 2020-09-23 13:35:51
复制代码





                                       
                                       

                                       
                                       
                                       




回复

使用道具 举报

懒得打字嘛,点击右侧快捷回复 【右侧内容,后台自定义】
您需要登录后才可以回帖 登录 | 立即加入

本版积分规则

Archiver|小黑屋| 蓝光电影网 |网站地图

Copyright © 2021 Comsenz Inc. Powered by 蓝光电影网

蓝光电影网

本站内容由用户自主分享和转载自互联网,转载目的在于传递更多信息,并不代表本网赞同其观点和对其真实性负责。

如有侵权、违反国家法律政策行为,请联系我们,我们会第一时间及时清除和处理!

举报反馈邮箱:[email protected]

快速回复 返回顶部 返回列表