找回密码

蓝光电影网

查看: 39|回复: 0

[剧情] 泰国派 15.Plus.Coming.of.Age.2017.THAI.1080p.NF.WEBRip.DDP5.1.x264-DEEP 5.03GB

[复制链接]
蓝光币
515
发表于 2021-8-20 01:12:14 | 显示全部楼层 |阅读模式


◎译  名 泰国派/15+ Coming of Age/15+ IQ Krachoot/15+ ???????????
◎片  名 15+ IQ ??????
◎年  代 2017
◎产  地 泰国
◎类  别 剧情 / 笑剧
◎语  言 泰语
◎上映日期 2017-08-03(泰国)
◎IMDb评分  6.7/10 from 87 users
◎IMDb链接  https://www.imdb.com/title/tt8414126/
◎豆瓣评分 5.5/10 from 815 users
◎豆瓣链接 https://movie.douban.com/subject/30242619/
◎片  长 104分钟
◎编  剧 卡尼萨·坤宇 Kanittha Kwanyu
◎主  演 普洛伊·索娜琳 Ploy Sornarin
       容辛·翁帕尼农 Yongsin Wongpanitnont
◎标  签 泰国 | 笑剧 | 青春 | 校园 | 长大 | 2017 | 2018 | 温情
◎简  介


  青春期的男生除了要勤奋念书,更要热衷研讨「健康教育」。15岁的查拉德(永思.翁帕尼浓 饰)和欧阳(塔纳瑟.苏里雅彭查坤 饰)、欧比(基拉奇.王斯朋 饰)三个无话不谈的好基友,天天一路高低课、懊恼着撩妹小事、分享磁盘里的女神、忖量着春季的到来。偶然机遇下,查拉拉目击心仪女孩樱桃与人气学长潭接吻,为夺樱桃芳心,查拉拉筹划着击败樱桃,好让樱桃崇敬的计划,可现实很残暴,科学比赛里有个大魔王──可谓考试妙手的天赋资优生苏达拉。馊主张一堆的三人,决议派出苏达拉的青梅竹马来个「爱情霸占计划」,但计划却全歪楼,黉舍没教的统统有!布满空想与感动的15岁,究竟会出现怎样的青春.性.插曲呢?
  1. Video
  2. ID                                       : 1
  3. Format                                   : AVC
  4. Format/Info                              : Advanced Video Codec
  5. Format profile                           : [email protected]
  6. Format settings                          : CABAC / 3 Ref Frames
  7. Format settings, CABAC                   : Yes
  8. Format settings, Reference frames        : 3 frames
  9. Codec ID                                 : V_MPEG4/ISO/AVC
  10. Duration                                 : 1 h 41 min
  11. Bit rate mode                            : Variable
  12. Bit rate                                 : 6 490 kb/s
  13. Maximum bit rate                         : 9 735 kb/s
  14. Width                                    : 1 920 pixels
  15. Height                                   : 1 080 pixels
  16. Display aspect ratio                     : 16:9
  17. Frame rate mode                          : Constant
  18. Frame rate                               : 24.000 FPS
  19. Color space                              : YUV
  20. Chroma subsampling                       : 4:2:0
  21. Bit depth                                : 8 bits
  22. Scan type                                : Progressive
  23. Bits/(Pixel*Frame)                       : 0.130
  24. Stream size                              : 4.58 GiB (91%)
  25. Writing library                          : x264 core 148 r2715 7e75228
  26. Encoding settings                        : cabac=1 / ref=3 / deblock=1:0:0 / analyse=0x1:0x111 / me=umh / subme=10 / psy=1 / psy_rd=1.00:0.00 / mixed_ref=1 / me_range=24 / chroma_me=1 / trellis=2 / 8x8dct=0 / cqm=0 / deadzone=21,11 / fast_pskip=1 / chroma_qp_offset=-2 / threads=8 / lookahead_threads=1 / sliced_threads=0 / nr=0 / decimate=1 / interlaced=0 / bluray_compat=0 / stitchable=1 / constrained_intra=0 / bframes=2 / b_pyramid=0 / b_adapt=2 / b_bias=0 / direct=3 / weightb=1 / open_gop=0 / weightp=2 / keyint=48 / keyint_min=25 / scenecut=0 / intra_refresh=0 / rc_lookahead=48 / rc=2pass / mbtree=1 / bitrate=6490 / ratetol=1.0 / qcomp=0.50 / qpmin=6 / qpmax=51 / qpstep=4 / cplxblur=20.0 / qblur=0.5 / vbv_maxrate=9735 / vbv_bufsize=12980 / nal_hrd=vbr / filler=0 / ip_ratio=1.40 / aq=1:1.00
  27. Default                                  : Yes
  28. Forced                                   : No
  29. Audio
  30. ID                                       : 2
  31. Format                                   : E-AC-3
  32. Format/Info                              : Enhanced AC-3
  33. Commercial name                          : Dolby Digital Plus
  34. Codec ID                                 : A_EAC3
  35. Duration                                 : 1 h 41 min
  36. Bit rate mode                            : Constant
  37. Bit rate                                 : 640 kb/s
  38. Channel(s)                               : 6 channels
  39. Channel layout                           : L R C LFE Ls Rs
  40. Sampling rate                            : 48.0 kHz
  41. Frame rate                               : 31.250 FPS (1536 SPF)
  42. Compression mode                         : Lossy
  43. Stream size                              : 463 MiB (9%)
  44. Language                                 : Thai
  45. Service kind                             : Complete Main
  46. Default                                  : Yes
  47. Forced                                   : No
  48. Text #1
  49. ID                                       : 3
  50. Format                                   : UTF-8
  51. Codec ID                                 : S_TEXT/UTF8
  52. Codec ID/Info                            : UTF-8 Plain Text
  53. Duration                                 : 1 h 40 min
  54. Bit rate                                 : 46 b/s
  55. Count of elements                        : 1150
  56. Stream size                              : 34.3 KiB (0%)
  57. Language                                 : English
  58. Default                                  : Yes
  59. Forced                                   : No
  60. Text #2
  61. ID                                       : 4
  62. Format                                   : UTF-8
  63. Codec ID                                 : S_TEXT/UTF8
  64. Codec ID/Info                            : UTF-8 Plain Text
  65. Duration                                 : 1 h 37 min
  66. Bit rate                                 : 126 b/s
  67. Count of elements                        : 1148
  68. Stream size                              : 89.9 KiB (0%)
  69. Language                                 : Thai
  70. Default                                  : No
  71. Forced                                   : No
复制代码






                                       
                                       

                                       
                                       
                                       




回复

使用道具 举报

懒得打字嘛,点击右侧快捷回复 【右侧内容,后台自定义】
您需要登录后才可以回帖 登录 | 立即加入

本版积分规则

Archiver|小黑屋| 蓝光电影网 |网站地图

Copyright © 2021 Comsenz Inc. Powered by 蓝光电影网

蓝光电影网

本站内容由用户自主分享和转载自互联网,转载目的在于传递更多信息,并不代表本网赞同其观点和对其真实性负责。

如有侵权、违反国家法律政策行为,请联系我们,我们会第一时间及时清除和处理!

举报反馈邮箱:[email protected]

快速回复 返回顶部 返回列表