找回密码

蓝光电影网

查看: 26|回复: 0

[剧情] 跳水男孩 Dive.2008.JAPANESE.1080p.AMZN.WEBRip.DDP5.1.x264-tG1R0 8.61GB

[复制链接]
蓝光币
519
发表于 2021-8-20 01:12:18 | 显示全部楼层 |阅读模式


◎译  名 跳水男孩
◎片  名 DIVE!!ダイブ!!
◎年  代 2008
◎产  地 日本
◎类  别 剧情
◎语  言 日语
◎上映日期 2008-06-14(日本)
◎IMDb评分  6.8/10 from 122 users
◎IMDb链接  https://www.imdb.com/title/tt1258195/
◎豆瓣评分 6.9/10 from 1395 users
◎豆瓣链接 https://movie.douban.com/subject/3115082/
◎片  长 115分钟
◎导  演 熊泽尚人 Naoto Kumazawa
◎编  剧 森绘都 Eto Mori / 户田山雅司 Masashi Todayama / 林民夫 Tamio Hayashi
◎主  演 林遣都 Kento Hayashi
       沟端淳平 Mizobata Junpei
       池松壮亮 Sosuke Ikematsu
       濑户朝香 Asaka Seto
       光石研 Ken Mitsuishi
       莲佛美沙子 Misako Renbutsu
       山田健太 Kenta Yamada
       江守彻 Toru Emori
       椎名鯛造 Shiina Taizo
       小野贤章 Kensho Ono
◎标  签 日本 | 日本电影 | 青春 | 林遣都 | 励志 | 活动 | 池松壮亮 | 溝端淳平
◎简  介


  因偶然看见同龄人自跳台而下的华丽曲线与身姿,少年坂井知季(林遣都 饰)决议加入MDC跳水俱乐部进修跳水。在接下来数年的练习中,知季和伙伴们度过了一个又一个欢畅的练习时光。但是MDC的经营情况却日就衰败,面临封闭的场面。投资人继续注资的要求只要一个,就是要求MDC必须培育出奥运选手来。在此严重的情况下,美丽而刻薄的麻痹夏阳子(濑户朝香 饰)受邀返国执教。在MDC俱乐部内,系著名门且技术拔尖的富士谷要一(池松壮亮 饰)最受重视,而一向表示平平的知季也被独具慧眼的麻痹教练选中作为培育工具。另一方面,麻痹还引入了天赋跳水运带动冲津飞沫(沟端淳平 饰)与要一、知季展开合作。青春与汗水,抛洒在阴雨绵绵的十米跳台之上……
  
  本片按照森绘都的同名青春小说改编。
  1. Video
  2. ID                                       : 1
  3. Format                                   : AVC
  4. Format/Info                              : Advanced Video Codec
  5. Format profile                           : [email protected]
  6. Format settings                          : CABAC / 4 Ref Frames
  7. Format settings, CABAC                   : Yes
  8. Format settings, Reference frames        : 4 frames
  9. Codec ID                                 : V_MPEG4/ISO/AVC
  10. Duration                                 : 1 h 55 min
  11. Bit rate mode                            : Variable
  12. Bit rate                                 : 10.0 Mb/s
  13. Maximum bit rate                         : 15.0 Mb/s
  14. Width                                    : 1 920 pixels
  15. Height                                   : 1 040 pixels
  16. Display aspect ratio                     : 1.85:1
  17. Frame rate mode                          : Constant
  18. Frame rate                               : 23.976 (24000/1001/189150) FPS
  19. Color space                              : YUV
  20. Chroma subsampling                       : 4:2:0
  21. Bit depth                                : 8 bits
  22. Scan type                                : Progressive
  23. Bits/(Pixel*Frame)                       : 0.209
  24. Stream size                              : 8.09 GiB (94%)
  25. Title                                    : Dive!! (2008) [Amazon JP]
  26. Language                                 : Japanese
  27. Default                                  : Yes
  28. Forced                                   : No
  29. Color range                              : Limited
  30. Color primaries                          : BT.709
  31. Transfer characteristics                 : BT.709
  32. Matrix coefficients                      : BT.709
  33. Audio
  34. ID                                       : 2
  35. Format                                   : E-AC-3
  36. Format/Info                              : Enhanced AC-3
  37. Commercial name                          : Dolby Digital Plus
  38. Codec ID                                 : A_EAC3
  39. Duration                                 : 1 h 55 min
  40. Bit rate mode                            : Constant
  41. Bit rate                                 : 640 kb/s
  42. Channel(s)                               : 6 channels
  43. Channel layout                           : L R C LFE Ls Rs
  44. Sampling rate                            : 48.0 kHz
  45. Frame rate                               : 31.250 FPS (1536 SPF)
  46. Compression mode                         : Lossy
  47. Stream size                              : 529 MiB (6%)
  48. Language                                 : Japanese
  49. Service kind                             : Complete Main
  50. Default                                  : Yes
  51. Forced                                   : No
  52. Text
  53. ID                                       : 3
  54. Format                                   : UTF-8
  55. Codec ID                                 : S_TEXT/UTF8
  56. Codec ID/Info                            : UTF-8 Plain Text
  57. Duration                                 : 1 h 48 min
  58. Bit rate                                 : 26 b/s
  59. Count of elements                        : 1066
  60. Stream size                              : 20.7 KiB (0%)
  61. Language                                 : English
  62. Default                                  : Yes
  63. Forced                                   : No
复制代码





                                       
                                       

                                       
                                       
                                       




回复

使用道具 举报

懒得打字嘛,点击右侧快捷回复 【右侧内容,后台自定义】
您需要登录后才可以回帖 登录 | 立即加入

本版积分规则

Archiver|小黑屋| 蓝光电影网 |网站地图

Copyright © 2021 Comsenz Inc. Powered by 蓝光电影网

蓝光电影网

本站内容由用户自主分享和转载自互联网,转载目的在于传递更多信息,并不代表本网赞同其观点和对其真实性负责。

如有侵权、违反国家法律政策行为,请联系我们,我们会第一时间及时清除和处理!

举报反馈邮箱:[email protected]

快速回复 返回顶部 返回列表