找回密码

蓝光电影网

查看: 66|回复: 0

[剧情] 远离越南 Far.from.Vietnam.1967.FRENCH.1080p.AMZN.WEBRip.DDP2.0.x264-Cinefeel 11.24GB

[复制链接]
蓝光币
623
发表于 2021-8-20 01:12:25 | 显示全部楼层 |阅读模式


◎译  名 阔别越南/Far from Vietnam
◎片  名 Loin du Vietnam
◎年  代 1967
◎产  地 法国
◎类  别 剧情 / 记载片 / 战争
◎语  言 法语
◎上映日期 1967-10-18
◎IMDb评分  7.4/10 from 626 users
◎IMDb链接  https://www.imdb.com/title/tt0061913/
◎豆瓣评分 7.7/10 from 879 users
◎豆瓣链接 https://movie.douban.com/subject/1293160/
◎片  长 115 分钟
◎导  演 尤里斯·伊文思 Joris Ivens / 威廉姆·克莱因 William Klein / 克洛德·勒卢什 Claude Lelouch / 克里斯·马克 Chris Marker / 阿伦·雷乃 Alain Resnais / 阿涅斯·瓦尔达 Agnès Varda / 让-吕克·戈达尔 Jean-Luc Godard
◎编  剧 克里斯·马克 Chris Marker / 让-吕克·戈达尔 Jean-Luc Godard
◎主  演 凯伦.布朗盖农 Karen Blanguernon
       贝尔纳·弗雷松 Bernard Fresson
       莫里斯·加瑞尔 Maurice Garrel
       让-吕克·戈达尔 Jean-Luc Godard
       胡志明 H? Chí Minh
       玛丽·米利雅拉 Marie-France Mignal
◎标  签 记载片 | 法国 | 越南 | 戈达尔 | Jean-Luc_Godard | 战争 | Alain_Resnais | Chris_Marker
◎简  介


  严酷的说,这也许算不上是一部集锦影片,而是法国常识份子导演和电影工作者在越战时代的一次“良知大行动”,而且这也是不多的几部集锦记载片当中的典范之作。
  
  在影片起头,讲解词就已经点明影片的大旨:越战是一场富人和贫民的战争,是敷裕的美国和贫困的越南之间的战争。在接下来“欲哭的约翰逊”、“倒叙(闪回)”“镜头眼”、“我们为何而战”、“安与尤艾”、“眼花”等等段落里,我们随着编导进入越南和美国的现状、探讨越战的历史、旁观常识份子的会商、介出天下各地人们的会商,深上天、多侧面地接近越战。这里面既有导演的主观论述,也有重消息影片上剪接过来的“客观”纪实,甚至还有极端小我化的表达方式。大如果在戈达尔的段落里,我们不竭看到一个摄影师/导演坐在摄影机后分歧角度、分歧景此外同一排场,而讲解词却在说着:我们没法到越南去,只能在这里建造这部影片。
  
  在大量究竟和概念,甚至是包括美国、越南以及天下列国群众对越战题目争辩的罗列以后,影片最初的一段讲解给一切人深入的印象,也使得整部影片获得了最得当的总结和升华:“战争就在我们四周,越南是为了我们而战”!
  
  ————————————————
  
  《阔别越南》(Loin du Viêtnam,尤里斯·伊文思等,1967年|120分钟|35毫米|黑白与彩色|有声)是由多位导演拍摄的反应越南战争的集锦片。除了尤里斯·伊文思,其他导演为阿兰·雷乃、让—吕克·戈达尔、阿涅斯·瓦尔达、克劳德·勒鲁什和美国摄影家威廉·克莱恩。影片首先对照了战争双方的军事气力,美方具有非常先辈的航空母舰,越方则以原始方式挖掘粗陋的防空洞;随着一阵狂轰滥炸,银幕变得昏入夜地;一出独幕剧表示了巴黎呼吁战争的示威与纽约支持战争的游行;在越南,一著名为《约翰逊在抽泣》的话剧嘲讽了好战的美国总统约翰逊;在巴黎,戈达尔一边将眼睛伏在取景器上取景,一边诠释为什么美国一定要建立一个属于美国的越南,并在这个片断中插入了自己刚刚拍竣的影片《中国姑娘》的部分场景;一位美国战地女记者报告了自己为什么在火线时希望成为另一个阵营的人;一位生活在巴黎的年轻的越南姑娘回忆起了在五角大楼前自焚的诺曼·莫里,他的远在大西洋另一边的妻子出现在镜头前。本片的诞生进程大致以下:克里斯·马凯在听了从越南归来的伊文思的报告后,倡议法国新浪潮的几位著名电影导演以及记载片大师伊文思和美国摄影家威廉·克莱恩(1928年生)配合拍摄一部关于越南战争的集锦片,每人负责拍摄其中的1到2个片断(总共拍摄了11个片断)。这些导演的艺术气概分歧,拍摄的片断多姿多彩,最极真个莫过于戈达尔拍摄的名为“镜头眼”的片断,依照形式与内容相互分手的原则,这个片断中的声音和画面毫无关联,他还亲身跳到镜头前报告自己为什么不能去越南而只能在巴黎拍摄。本片是电影史上著名的反战影片之一,具有极强的艺术传染力。
  1. Video
  2. ID                                       : 1
  3. Format                                   : AVC
  4. Format/Info                              : Advanced Video Codec
  5. Format profile                           : [email protected]
  6. Format settings                          : CABAC / 4 Ref Frames
  7. Format settings, CABAC                   : Yes
  8. Format settings, Reference frames        : 4 frames
  9. Codec ID                                 : V_MPEG4/ISO/AVC
  10. Duration                                 : 1 h 55 min
  11. Bit rate mode                            : Variable
  12. Bit rate                                 : 13.6 Mb/s
  13. Maximum bit rate                         : 15.0 Mb/s
  14. Width                                    : 1 440 pixels
  15. Height                                   : 1 080 pixels
  16. Display aspect ratio                     : 4:3
  17. Frame rate mode                          : Constant
  18. Frame rate                               : 24.000 FPS
  19. Color space                              : YUV
  20. Chroma subsampling                       : 4:2:0
  21. Bit depth                                : 8 bits
  22. Scan type                                : Progressive
  23. Bits/(Pixel*Frame)                       : 0.366
  24. Stream size                              : 11.1 GiB (98%)
  25. Default                                  : Yes
  26. Forced                                   : No
  27. Color range                              : Limited
  28. Color primaries                          : BT.709
  29. Transfer characteristics                 : BT.709
  30. Matrix coefficients                      : BT.709
  31. Audio
  32. ID                                       : 2
  33. Format                                   : E-AC-3
  34. Format/Info                              : Enhanced AC-3
  35. Commercial name                          : Dolby Digital Plus
  36. Codec ID                                 : A_EAC3
  37. Duration                                 : 1 h 55 min
  38. Bit rate mode                            : Constant
  39. Bit rate                                 : 224 kb/s
  40. Channel(s)                               : 2 channels
  41. Channel layout                           : L R
  42. Sampling rate                            : 48.0 kHz
  43. Frame rate                               : 31.250 FPS (1536 SPF)
  44. Compression mode                         : Lossy
  45. Stream size                              : 186 MiB (2%)
  46. Language                                 : French
  47. Service kind                             : Complete Main
  48. Default                                  : Yes
  49. Forced                                   : No
  50. Text
  51. ID                                       : 3
  52. Format                                   : UTF-8
  53. Codec ID                                 : S_TEXT/UTF8
  54. Codec ID/Info                            : UTF-8 Plain Text
  55. Duration                                 : 1 h 54 min
  56. Bit rate                                 : 24 b/s
  57. Count of elements                        : 720
  58. Stream size                              : 20.3 KiB (0%)
  59. Language                                 : English
  60. Default                                  : No
  61. Forced                                   : No
复制代码






                                       
                                       

                                       
                                       
                                       




回复

使用道具 举报

懒得打字嘛,点击右侧快捷回复 【右侧内容,后台自定义】
您需要登录后才可以回帖 登录 | 立即加入

本版积分规则

Archiver|小黑屋| 蓝光电影网 |网站地图

Copyright © 2021 Comsenz Inc. Powered by 蓝光电影网

蓝光电影网

本站内容由用户自主分享和转载自互联网,转载目的在于传递更多信息,并不代表本网赞同其观点和对其真实性负责。

如有侵权、违反国家法律政策行为,请联系我们,我们会第一时间及时清除和处理!

举报反馈邮箱:[email protected]

快速回复 返回顶部 返回列表