找回密码

蓝光电影网

查看: 24|回复: 0

[剧情] 棒球之爱 Glove.2011.KOREAN.1080p.NF.WEBRip.DDP5.1.x264-tG1R0 6.89GB

[复制链接]
蓝光币
515
发表于 2021-8-20 01:12:29 | 显示全部楼层 |阅读模式


◎译  名 棒球之爱/G-LOVE
◎片  名 ???
◎年  代 2011
◎产  地 韩国
◎类  别 剧情 / 活动
◎语  言 韩语
◎上映日期 2011-01-27(韩国)
◎IMDb评分  6.9/10 from 280 users
◎IMDb链接  https://www.imdb.com/title/tt1832362/
◎豆瓣评分 7.8/10 from 1348 users
◎豆瓣链接 https://movie.douban.com/subject/5299006/
◎片  长 144分钟
◎导  演 康佑硕 Woo-Suk Kang
◎编  剧 申东益 Dong-ik Shin
◎主  演 郑在咏 Jae-yeong Jeong
       柳善 Seon Yu
       金彗星 Hye-sung Kim
       张基范 Ki-beom Jang
       吴熙俊 Hee-joon Oh
       张勇福 Jang Yong-bok
       金景龙 Geong-ryong Kim
       曹文义 Moon-ui Jo
       赵震雄 Cho Jin-woong
       陈庆 Jin Gyeong
       李玹雨 Hyun-Woo Lee
       宋英才 Song Young-jae
       琴东贤 Geum Dong-hyeon
       池一株 Il-joo Ji
       金善荷 Kim Seon-ha
       全国焕 Gook-hwan Jeon
       金美京 Mi-kyung Kim
       权恩秀 Eun-soo Kwon
◎标  签 韩国 | 励志 | 韩国电影 | 棒球 | 青春 | 郑在泳 | 2011 | 体育
◎简  介


  金尚男(郑在泳 饰)是韩国国内数一数二的棒球投手,持续三界MVP得主,可是他不竭惹上麻烦,比来又酒后用球棒攻击他人,在收集和媒体上激发了抗议与批评,球队高层也不再容忍他,将他临时逐出球队,下放到一家教会慈善黉舍,担任一支由听觉障碍队员们组成的棒球队的教练。掮客人哲秀将闷闷不乐的金尚男交给了黉舍方面的姜校监和罗教员(柳善 饰),把黉舍当做临时落脚地的金尚男对这只拼集出来的球队并无爱好,但耐不住罗教员的催促和孩子们的诚恳,亦为了报答哲秀久长以来的虔诚,决意帮助孩子们实现在高中棒球联赛中最少赢得一场角逐的愿望……
◎获奖情况
  第48届韩国电影大钟奖 ?(2011)
  最好新人男演员(提名) 张基范
  1. Video
  2. ID                                       : 1
  3. Format                                   : AVC
  4. Format/Info                              : Advanced Video Codec
  5. Format profile                           : [email protected]
  6. Format settings                          : CABAC / 3 Ref Frames
  7. Format settings, CABAC                   : Yes
  8. Format settings, Reference frames        : 3 frames
  9. Codec ID                                 : V_MPEG4/ISO/AVC
  10. Duration                                 : 2 h 24 min
  11. Bit rate mode                            : Variable
  12. Bit rate                                 : 6 190 kb/s
  13. Maximum bit rate                         : 9 285 kb/s
  14. Width                                    : 1 920 pixels
  15. Height                                   : 1 080 pixels
  16. Display aspect ratio                     : 16:9
  17. Frame rate mode                          : Constant
  18. Frame rate                               : 23.976 (24000/1001/189150) FPS
  19. Color space                              : YUV
  20. Chroma subsampling                       : 4:2:0
  21. Bit depth                                : 8 bits
  22. Scan type                                : Progressive
  23. Bits/(Pixel*Frame)                       : 0.125
  24. Stream size                              : 6.24 GiB (91%)
  25. Title                                    : Geulreobeu (2011) [Netflix] - tt1832362
  26. Writing library                          : x264 core 148 r2714 2daf636
  27. Encoding settings                        : cabac=1 / ref=3 / deblock=1:0:0 / analyse=0x1:0x111 / me=umh / subme=10 / psy=1 / psy_rd=1.00:0.00 / mixed_ref=1 / me_range=24 / chroma_me=1 / trellis=2 / 8x8dct=0 / cqm=0 / deadzone=21,11 / fast_pskip=1 / chroma_qp_offset=-2 / threads=8 / lookahead_threads=1 / sliced_threads=0 / nr=0 / decimate=1 / interlaced=0 / bluray_compat=0 / stitchable=1 / constrained_intra=0 / bframes=2 / b_pyramid=0 / b_adapt=2 / b_bias=0 / direct=3 / weightb=1 / open_gop=0 / weightp=2 / keyint=48 / keyint_min=25 / scenecut=0 / intra_refresh=0 / rc_lookahead=48 / rc=2pass / mbtree=1 / bitrate=6190 / ratetol=1.0 / qcomp=0.50 / qpmin=6 / qpmax=51 / qpstep=4 / cplxblur=20.0 / qblur=0.5 / vbv_maxrate=9285 / vbv_bufsize=12380 / nal_hrd=vbr / filler=0 / ip_ratio=1.40 / aq=1:1.00
  28. Language                                 : Korean
  29. Default                                  : Yes
  30. Forced                                   : No
  31. Audio
  32. ID                                       : 2
  33. Format                                   : E-AC-3
  34. Format/Info                              : Enhanced AC-3
  35. Commercial name                          : Dolby Digital Plus
  36. Codec ID                                 : A_EAC3
  37. Duration                                 : 2 h 24 min
  38. Bit rate mode                            : Constant
  39. Bit rate                                 : 640 kb/s
  40. Channel(s)                               : 6 channels
  41. Channel layout                           : L R C LFE Ls Rs
  42. Sampling rate                            : 48.0 kHz
  43. Frame rate                               : 31.250 FPS (1536 SPF)
  44. Compression mode                         : Lossy
  45. Stream size                              : 663 MiB (9%)
  46. Language                                 : Korean
  47. Service kind                             : Complete Main
  48. Default                                  : Yes
  49. Forced                                   : No
  50. Text #1
  51. ID                                       : 3
  52. Format                                   : UTF-8
  53. Codec ID                                 : S_TEXT/UTF8
  54. Codec ID/Info                            : UTF-8 Plain Text
  55. Duration                                 : 2 h 20 min
  56. Bit rate                                 : 48 b/s
  57. Count of elements                        : 1620
  58. Stream size                              : 50.5 KiB (0%)
  59. Language                                 : English
  60. Default                                  : Yes
  61. Forced                                   : No
  62. Text #2
  63. ID                                       : 4
  64. Format                                   : UTF-8
  65. Codec ID                                 : S_TEXT/UTF8
  66. Codec ID/Info                            : UTF-8 Plain Text
  67. Duration                                 : 2 h 4 min
  68. Bit rate                                 : 3 b/s
  69. Count of elements                        : 98
  70. Stream size                              : 2.85 KiB (0%)
  71. Title                                    : FORCED
  72. Language                                 : Korean
  73. Default                                  : No
  74. Forced                                   : No
  75. Text #3
  76. ID                                       : 5
  77. Format                                   : UTF-8
  78. Codec ID                                 : S_TEXT/UTF8
  79. Codec ID/Info                            : UTF-8 Plain Text
  80. Duration                                 : 2 h 20 min
  81. Bit rate                                 : 66 b/s
  82. Count of elements                        : 1977
  83. Stream size                              : 68.2 KiB (0%)
  84. Title                                    : SDH
  85. Language                                 : Korean
  86. Default                                  : No
  87. Forced                                   : No
复制代码






                                       
                                       

                                       
                                       
                                       




回复

使用道具 举报

懒得打字嘛,点击右侧快捷回复 【右侧内容,后台自定义】
您需要登录后才可以回帖 登录 | 立即加入

本版积分规则

Archiver|小黑屋| 蓝光电影网 |网站地图

Copyright © 2021 Comsenz Inc. Powered by 蓝光电影网

蓝光电影网

本站内容由用户自主分享和转载自互联网,转载目的在于传递更多信息,并不代表本网赞同其观点和对其真实性负责。

如有侵权、违反国家法律政策行为,请联系我们,我们会第一时间及时清除和处理!

举报反馈邮箱:[email protected]

快速回复 返回顶部 返回列表