找回密码

蓝光电影网

查看: 23|回复: 0

[剧情] 霍家拳之威震山河 Shocking.Kung.Fu.of.Huos.2018.CHINESE.1080p.AMZN.WEBRip.DDP2.0.x264-tG1R0 6.16GB

[复制链接]
蓝光币
515
发表于 2021-8-20 01:12:36 | 显示全部楼层 |阅读模式


◎译  名 Shocking.Kungfu.Of.Huo's
◎片  名 霍家拳之威震山河
◎年  代 2018
◎产  地 中国大陆
◎类  别 剧情 / 行动 / 悬疑
◎语  言 汉语普通话
◎上映日期 2018-06-09(中国大陆)
◎IMDb链接  https://www.imdb.com/title/tt11784470/
◎豆瓣评分 /10 from 0 users
◎豆瓣链接 https://movie.douban.com/subject/30238434/
◎片  长 100分钟
◎编  剧 王梦灵 Mengling Wang
◎主  演 陈秋果 Qiuguo Chen
       李乾锋 Qianfeng Li
◎标  签 功夫 | 行动 | 国产 | 电影 | 武侠 | 中国电影 | 电视剧 | 張榕容
◎简  介


  本片报告了辛亥反动期间的上海,爱国武师霍振山、何大川携手烧毁大烟馆,引来斧头帮追杀,何大川为助义兄霍振山脱困被杀。二十年后的霍振山在上海开起武馆发扬中华武术,并寻觅何大川的先人。面临黑市拳庄的应战,霍振山击败对手却拒绝支付赏金,让赶来观战的石头心生敬意。而大门生黄锦鹏却黑暗勾结拳庄老板,害死徒弟。石头和黄锦鹏在交锋中发现相互身世,竟是何大川失散多年的孩子,二人携手击败了拳市司理,铲平了黑市拳庄。
  1. Video
  2. ID                                       : 1
  3. Format                                   : AVC
  4. Format/Info                              : Advanced Video Codec
  5. Format profile                           : [email protected]
  6. Format settings                          : CABAC / 4 Ref Frames
  7. Format settings, CABAC                   : Yes
  8. Format settings, Reference frames        : 4 frames
  9. Codec ID                                 : V_MPEG4/ISO/AVC
  10. Duration                                 : 1 h 38 min
  11. Bit rate mode                            : Constant
  12. Bit rate                                 : 8 696 kb/s
  13. Nominal bit rate                         : 10 000 kb/s
  14. Width                                    : 1 920 pixels
  15. Height                                   : 816 pixels
  16. Display aspect ratio                     : 2.35:1
  17. Frame rate mode                          : Constant
  18. Frame rate                               : 24.000 FPS
  19. Color space                              : YUV
  20. Chroma subsampling                       : 4:2:0
  21. Bit depth                                : 8 bits
  22. Scan type                                : Progressive
  23. Bits/(Pixel*Frame)                       : 0.231
  24. Stream size                              : 6.00 GiB (97%)
  25. Title                                    : Shocking Kung Fu of Huo\'s (2018) [Amazon US]
  26. Language                                 : Chinese
  27. Default                                  : Yes
  28. Forced                                   : No
  29. Color range                              : Limited
  30. Color primaries                          : BT.709
  31. Transfer characteristics                 : BT.709
  32. Matrix coefficients                      : BT.709
  33. Audio
  34. ID                                       : 2
  35. Format                                   : E-AC-3
  36. Format/Info                              : Enhanced AC-3
  37. Commercial name                          : Dolby Digital Plus
  38. Codec ID                                 : A_EAC3
  39. Duration                                 : 1 h 38 min
  40. Bit rate mode                            : Constant
  41. Bit rate                                 : 224 kb/s
  42. Channel(s)                               : 2 channels
  43. Channel layout                           : L R
  44. Sampling rate                            : 48.0 kHz
  45. Frame rate                               : 31.250 FPS (1536 SPF)
  46. Compression mode                         : Lossy
  47. Stream size                              : 158 MiB (3%)
  48. Language                                 : Chinese
  49. Service kind                             : Complete Main
  50. Default                                  : Yes
  51. Forced                                   : No
  52. Text
  53. ID                                       : 3
  54. Format                                   : UTF-8
  55. Codec ID                                 : S_TEXT/UTF8
  56. Codec ID/Info                            : UTF-8 Plain Text
  57. Duration                                 : 1 h 35 min
  58. Bit rate                                 : 39 b/s
  59. Count of elements                        : 1348
  60. Stream size                              : 27.7 KiB (0%)
  61. Language                                 : English
  62. Default                                  : Yes
  63. Forced                                   : No
复制代码





                                       
                                       

                                       
                                       
                                       




回复

使用道具 举报

懒得打字嘛,点击右侧快捷回复 【右侧内容,后台自定义】
您需要登录后才可以回帖 登录 | 立即加入

本版积分规则

Archiver|小黑屋| 蓝光电影网 |网站地图

Copyright © 2021 Comsenz Inc. Powered by 蓝光电影网

蓝光电影网

本站内容由用户自主分享和转载自互联网,转载目的在于传递更多信息,并不代表本网赞同其观点和对其真实性负责。

如有侵权、违反国家法律政策行为,请联系我们,我们会第一时间及时清除和处理!

举报反馈邮箱:[email protected]

快速回复 返回顶部 返回列表