找回密码

蓝光电影网

查看: 41|回复: 0

[剧情] 厕所和女人 Toilet.and.Women.2012.JAPANESE.1080p.AMZN.WEBRip.DDP2.0.x264-ARiN 6.94GB

[复制链接]
蓝光币
515
发表于 2021-8-20 01:12:39 | 显示全部楼层 |阅读模式


◎译  名 茅厕和女人/Donzumari benki/Helpless and Reckless/Toilet and Women/末路便器
◎片  名 どんずまり便器
◎年  代 2012
◎产  地 日本
◎类  别 剧情
◎语  言 日语
◎上映日期 2012-04-14(日本)
◎IMDb评分  5.2/10 from 29 users
◎IMDb链接  https://www.imdb.com/title/tt2330829/
◎豆瓣评分 5.4/10 from 68 users
◎豆瓣链接 https://movie.douban.com/subject/5318708/
◎片  长 81分钟
◎主  演 菜叶菜 Nahana
       玄觉悠子 Yuko Genkaku
◎标  签 日本 | 情色 | 日本电影 | 小栗はるひ | Cult | 2012 | 青春 | 日影
◎简  介


  性情激进的奈留美(菜叶菜 饰)和性情温顺的圭(中村邦晃 饰)是姐弟俩。自从年少双亲变乱过世以后两人相依为命。奈留美因殴打同事被判入狱,服刑期满后,奈留美出狱回抵家中,发现圭和女友加奈(菅原佳子 饰)同居在一路。她决议把弟弟夺返来,她告诉了加奈一个自己和弟弟之间的奥秘……
  
  这是青年女性导演小栗春日25岁时的作品,主演菜叶菜凭仗此片获得2011年夕张国际FANTASTIC电影节最好女演员奖。
  1. Video
  2. ID                                       : 1
  3. Format                                   : AVC
  4. Format/Info                              : Advanced Video Codec
  5. Format profile                           : [email protected]
  6. Format settings                          : CABAC / 4 Ref Frames
  7. Format settings, CABAC                   : Yes
  8. Format settings, Reference frames        : 4 frames
  9. Codec ID                                 : V_MPEG4/ISO/AVC
  10. Duration                                 : 1 h 18 min
  11. Bit rate                                 : 12.4 Mb/s
  12. Width                                    : 1 920 pixels
  13. Height                                   : 1 080 pixels
  14. Display aspect ratio                     : 16:9
  15. Frame rate mode                          : Constant
  16. Frame rate                               : 29.970 (30000/1001/189150) FPS
  17. Color space                              : YUV
  18. Chroma subsampling                       : 4:2:0
  19. Bit depth                                : 8 bits
  20. Scan type                                : Progressive
  21. Bits/(Pixel*Frame)                       : 0.199
  22. Stream size                              : 6.81 GiB (98%)
  23. Default                                  : Yes
  24. Forced                                   : No
  25. Color range                              : Limited
  26. Color primaries                          : BT.709
  27. Transfer characteristics                 : BT.709
  28. Matrix coefficients                      : BT.709
  29. Audio
  30. ID                                       : 2
  31. Format                                   : E-AC-3
  32. Format/Info                              : Enhanced AC-3
  33. Commercial name                          : Dolby Digital Plus
  34. Codec ID                                 : A_EAC3
  35. Duration                                 : 1 h 18 min
  36. Bit rate mode                            : Constant
  37. Bit rate                                 : 224 kb/s
  38. Channel(s)                               : 2 channels
  39. Channel layout                           : L R
  40. Sampling rate                            : 48.0 kHz
  41. Frame rate                               : 31.250 FPS (1536 SPF)
  42. Compression mode                         : Lossy
  43. Stream size                              : 126 MiB (2%)
  44. Language                                 : Japanese
  45. Service kind                             : Complete Main
  46. Default                                  : Yes
  47. Forced                                   : No
  48. Text
  49. ID                                       : 3
  50. Format                                   : UTF-8
  51. Codec ID                                 : S_TEXT/UTF8
  52. Codec ID/Info                            : UTF-8 Plain Text
  53. Duration                                 : 1 h 17 min
  54. Bit rate                                 : 20 b/s
  55. Count of elements                        : 461
  56. Stream size                              : 11.4 KiB (0%)
  57. Language                                 : English
  58. Default                                  : Yes
  59. Forced                                   : No
复制代码






                                       
                                       

                                       
                                       
                                       




回复

使用道具 举报

懒得打字嘛,点击右侧快捷回复 【右侧内容,后台自定义】
您需要登录后才可以回帖 登录 | 立即加入

本版积分规则

Archiver|小黑屋| 蓝光电影网 |网站地图

Copyright © 2021 Comsenz Inc. Powered by 蓝光电影网

蓝光电影网

本站内容由用户自主分享和转载自互联网,转载目的在于传递更多信息,并不代表本网赞同其观点和对其真实性负责。

如有侵权、违反国家法律政策行为,请联系我们,我们会第一时间及时清除和处理!

举报反馈邮箱:[email protected]

快速回复 返回顶部 返回列表