找回密码

蓝光电影网

查看: 61|回复: 0

[剧情] 亲吻地面 Kiss.the.Ground.2020.1080p.NF.WEBRip.DDP5.1.x264-TEPES 4.71GB

[复制链接]
蓝光币
511
发表于 2021-8-20 01:13:12 | 显示全部楼层 |阅读模式


◎译  名 亲吻空中
◎片  名 Kiss the Ground
◎年  代 2020
◎产  地 美国
◎类  别 剧情 / 记载片
◎语  言 英语
◎上映日期 2020-04(美国)
◎IMDb评分  7.3/10 from 10 users
◎IMDb链接  https://www.imdb.com/title/tt8618654/
◎豆瓣评分 /10 from 0 users
◎豆瓣链接 https://movie.douban.com/subject/35090748/
◎片  长 84分钟
◎标  签 记载片 | 自然 | 美国 | 科学 | 环保 | 2020
◎简  介


  接吻空中(简称)是一部记载片,摸索了第一个可行的,低本钱的方式来改变天气变化经过(鼓卷)。。。土壤。假如处置适当,土壤(亦称“土壤”)有能够将人类排放到大气中的大部分二氧化碳封存起来。只要一个题目:我们现代的、产业化的、以单作物为根本的农业正在杀死土壤中的微生物,而这些微生物是停止碳封存的(“生物测定”)。但还有希望。一个由科学家、农民、牧场主、活动家和政府机构组成的激进构造正结合起来,在全球范围内展开一场新型农业活动,称之为“再生农业”,这类农业可以增加土壤寿命、贮存水和封存二氧化碳。这些人来自分歧的布景,但他们有一个配合的许诺——在太迟之前治愈天下的土壤。亲吻空中是一个强大的处理人类最大应战之一的故事。
  1. Video
  2. ID                                       : 1
  3. Format                                   : AVC
  4. Format/Info                              : Advanced Video Codec
  5. Format profile                           : [email protected]
  6. Format settings                          : CABAC / 3 Ref Frames
  7. Format settings, CABAC                   : Yes
  8. Format settings, Reference frames        : 3 frames
  9. Codec ID                                 : V_MPEG4/ISO/AVC
  10. Duration                                 : 1 h 24 min
  11. Bit rate mode                            : Variable
  12. Bit rate                                 : 7 500 kb/s
  13. Maximum bit rate                         : 11.2 Mb/s
  14. Width                                    : 1 920 pixels
  15. Height                                   : 1 080 pixels
  16. Display aspect ratio                     : 16:9
  17. Frame rate mode                          : Constant
  18. Frame rate                               : 23.976 (24000/1001/189150) FPS
  19. Color space                              : YUV
  20. Chroma subsampling                       : 4:2:0
  21. Bit depth                                : 8 bits
  22. Scan type                                : Progressive
  23. Bits/(Pixel*Frame)                       : 0.151
  24. Stream size                              : 4.33 GiB (92%)
  25. Writing library                          : x264 core 148 r2722 1b0121b
  26. Encoding settings                        : cabac=1 / ref=3 / deblock=1:0:0 / analyse=0x1:0x111 / me=umh / subme=10 / psy=1 / psy_rd=1.00:0.00 / mixed_ref=1 / me_range=24 / chroma_me=1 / trellis=2 / 8x8dct=0 / cqm=0 / deadzone=21,11 / fast_pskip=1 / chroma_qp_offset=-2 / threads=8 / lookahead_threads=1 / sliced_threads=0 / nr=0 / decimate=1 / interlaced=0 / bluray_compat=0 / stitchable=1 / constrained_intra=0 / bframes=2 / b_pyramid=0 / b_adapt=2 / b_bias=0 / direct=3 / weightb=1 / open_gop=0 / weightp=2 / keyint=250 / keyint_min=23 / scenecut=0 / intra_refresh=0 / rc_lookahead=48 / rc=2pass / mbtree=1 / bitrate=7500 / ratetol=1.0 / qcomp=0.50 / qpmin=6 / qpmax=51 / qpstep=4 / cplxblur=20.0 / qblur=0.5 / vbv_maxrate=11250 / vbv_bufsize=15000 / nal_hrd=vbr / filler=0 / ip_ratio=1.40 / aq=1:1.00
  27. Default                                  : Yes
  28. Forced                                   : No
  29. Audio
  30. ID                                       : 2
  31. Format                                   : E-AC-3
  32. Format/Info                              : Enhanced AC-3
  33. Commercial name                          : Dolby Digital Plus
  34. Codec ID                                 : A_EAC3
  35. Duration                                 : 1 h 24 min
  36. Bit rate mode                            : Constant
  37. Bit rate                                 : 640 kb/s
  38. Channel(s)                               : 6 channels
  39. Channel layout                           : L R C LFE Ls Rs
  40. Sampling rate                            : 48.0 kHz
  41. Frame rate                               : 31.250 FPS (1536 SPF)
  42. Compression mode                         : Lossy
  43. Stream size                              : 389 MiB (8%)
  44. Language                                 : English
  45. Service kind                             : Complete Main
  46. Default                                  : Yes
  47. Forced                                   : No
  48. Text #1
  49. ID                                       : 3
  50. Format                                   : UTF-8
  51. Codec ID                                 : S_TEXT/UTF8
  52. Codec ID/Info                            : UTF-8 Plain Text
  53. Duration                                 : 4 min 11 s
  54. Bit rate                                 : 44 b/s
  55. Count of elements                        : 32
  56. Stream size                              : 1.35 KiB (0%)
  57. Title                                    : Forced
  58. Language                                 : English
  59. Default                                  : Yes
  60. Forced                                   : Yes
  61. Text #2
  62. ID                                       : 4
  63. Format                                   : UTF-8
  64. Codec ID                                 : S_TEXT/UTF8
  65. Codec ID/Info                            : UTF-8 Plain Text
  66. Duration                                 : 1 h 24 min
  67. Bit rate                                 : 96 b/s
  68. Count of elements                        : 1294
  69. Stream size                              : 60.0 KiB (0%)
  70. Title                                    : SDH
  71. Language                                 : English
  72. Default                                  : No
  73. Forced                                   : No
  74. Text #3
  75. ID                                       : 5
  76. Format                                   : UTF-8
  77. Codec ID                                 : S_TEXT/UTF8
  78. Codec ID/Info                            : UTF-8 Plain Text
  79. Duration                                 : 1 h 24 min
  80. Bit rate                                 : 134 b/s
  81. Count of elements                        : 1254
  82. Stream size                              : 83.0 KiB (0%)
  83. Language                                 : Arabic
  84. Default                                  : No
  85. Forced                                   : No
  86. Text #4
  87. ID                                       : 6
  88. Format                                   : UTF-8
  89. Codec ID                                 : S_TEXT/UTF8
  90. Codec ID/Info                            : UTF-8 Plain Text
  91. Duration                                 : 1 h 24 min
  92. Bit rate                                 : 86 b/s
  93. Count of elements                        : 1213
  94. Stream size                              : 53.2 KiB (0%)
  95. Language                                 : Czech
  96. Default                                  : No
  97. Forced                                   : No
  98. Text #5
  99. ID                                       : 7
  100. Format                                   : UTF-8
  101. Codec ID                                 : S_TEXT/UTF8
  102. Codec ID/Info                            : UTF-8 Plain Text
  103. Duration                                 : 1 h 24 min
  104. Bit rate                                 : 75 b/s
  105. Count of elements                        : 1244
  106. Stream size                              : 46.4 KiB (0%)
  107. Language                                 : Danish
  108. Default                                  : No
  109. Forced                                   : No
  110. Text #6
  111. ID                                       : 8
  112. Format                                   : UTF-8
  113. Codec ID                                 : S_TEXT/UTF8
  114. Codec ID/Info                            : UTF-8 Plain Text
  115. Duration                                 : 1 h 24 min
  116. Bit rate                                 : 83 b/s
  117. Count of elements                        : 1238
  118. Stream size                              : 51.6 KiB (0%)
  119. Language                                 : German
  120. Default                                  : No
  121. Forced                                   : No
  122. Text #7
  123. ID                                       : 9
  124. Format                                   : UTF-8
  125. Codec ID                                 : S_TEXT/UTF8
  126. Codec ID/Info                            : UTF-8 Plain Text
  127. Duration                                 : 1 h 24 min
  128. Bit rate                                 : 139 b/s
  129. Count of elements                        : 1226
  130. Stream size                              : 86.0 KiB (0%)
  131. Language                                 : Greek
  132. Default                                  : No
  133. Forced                                   : No
  134. Text #8
  135. ID                                       : 10
  136. Format                                   : UTF-8
  137. Codec ID                                 : S_TEXT/UTF8
  138. Codec ID/Info                            : UTF-8 Plain Text
  139. Duration                                 : 1 h 24 min
  140. Bit rate                                 : 84 b/s
  141. Count of elements                        : 1236
  142. Stream size                              : 52.2 KiB (0%)
  143. Title                                    : Latin American
  144. Language                                 : Spanish
  145. Default                                  : No
  146. Forced                                   : No
  147. Text #9
  148. ID                                       : 11
  149. Format                                   : UTF-8
  150. Codec ID                                 : S_TEXT/UTF8
  151. Codec ID/Info                            : UTF-8 Plain Text
  152. Duration                                 : 1 h 24 min
  153. Bit rate                                 : 84 b/s
  154. Count of elements                        : 1257
  155. Stream size                              : 52.0 KiB (0%)
  156. Title                                    : European
  157. Language                                 : Spanish
  158. Default                                  : No
  159. Forced                                   : No
  160. Text #10
  161. ID                                       : 12
  162. Format                                   : UTF-8
  163. Codec ID                                 : S_TEXT/UTF8
  164. Codec ID/Info                            : UTF-8 Plain Text
  165. Duration                                 : 1 h 24 min
  166. Bit rate                                 : 76 b/s
  167. Count of elements                        : 1048
  168. Stream size                              : 47.4 KiB (0%)
  169. Language                                 : Finnish
  170. Default                                  : No
  171. Forced                                   : No
  172. Text #11
  173. ID                                       : 13
  174. Format                                   : UTF-8
  175. Codec ID                                 : S_TEXT/UTF8
  176. Codec ID/Info                            : UTF-8 Plain Text
  177. Duration                                 : 1 h 24 min
  178. Bit rate                                 : 78 b/s
  179. Count of elements                        : 1143
  180. Stream size                              : 48.7 KiB (0%)
  181. Language                                 : French
  182. Default                                  : No
  183. Forced                                   : No
  184. Text #12
  185. ID                                       : 14
  186. Format                                   : UTF-8
  187. Codec ID                                 : S_TEXT/UTF8
  188. Codec ID/Info                            : UTF-8 Plain Text
  189. Duration                                 : 1 h 24 min
  190. Bit rate                                 : 130 b/s
  191. Count of elements                        : 1311
  192. Stream size                              : 80.7 KiB (0%)
  193. Language                                 : Hebrew
  194. Default                                  : No
  195. Forced                                   : No
  196. Text #13
  197. ID                                       : 15
  198. Format                                   : UTF-8
  199. Codec ID                                 : S_TEXT/UTF8
  200. Codec ID/Info                            : UTF-8 Plain Text
  201. Duration                                 : 1 h 24 min
  202. Bit rate                                 : 82 b/s
  203. Count of elements                        : 1184
  204. Stream size                              : 51.2 KiB (0%)
  205. Language                                 : Hungarian
  206. Default                                  : No
  207. Forced                                   : No
  208. Text #14
  209. ID                                       : 16
  210. Format                                   : UTF-8
  211. Codec ID                                 : S_TEXT/UTF8
  212. Codec ID/Info                            : UTF-8 Plain Text
  213. Duration                                 : 1 h 24 min
  214. Bit rate                                 : 82 b/s
  215. Count of elements                        : 1238
  216. Stream size                              : 50.7 KiB (0%)
  217. Language                                 : Indonesian
  218. Default                                  : No
  219. Forced                                   : No
  220. Text #15
  221. ID                                       : 17
  222. Format                                   : UTF-8
  223. Codec ID                                 : S_TEXT/UTF8
  224. Codec ID/Info                            : UTF-8 Plain Text
  225. Duration                                 : 1 h 24 min
  226. Bit rate                                 : 81 b/s
  227. Count of elements                        : 1259
  228. Stream size                              : 50.5 KiB (0%)
  229. Language                                 : Italian
  230. Default                                  : No
  231. Forced                                   : No
  232. Text #16
  233. ID                                       : 18
  234. Format                                   : UTF-8
  235. Codec ID                                 : S_TEXT/UTF8
  236. Codec ID/Info                            : UTF-8 Plain Text
  237. Duration                                 : 1 h 24 min
  238. Bit rate                                 : 95 b/s
  239. Count of elements                        : 1357
  240. Stream size                              : 59.1 KiB (0%)
  241. Language                                 : Japanese
  242. Default                                  : No
  243. Forced                                   : No
  244. Text #17
  245. ID                                       : 19
  246. Format                                   : UTF-8
  247. Codec ID                                 : S_TEXT/UTF8
  248. Codec ID/Info                            : UTF-8 Plain Text
  249. Duration                                 : 1 h 24 min
  250. Bit rate                                 : 91 b/s
  251. Count of elements                        : 1277
  252. Stream size                              : 56.7 KiB (0%)
  253. Language                                 : Korean
  254. Default                                  : No
  255. Forced                                   : No
  256. Text #18
  257. ID                                       : 20
  258. Format                                   : UTF-8
  259. Codec ID                                 : S_TEXT/UTF8
  260. Codec ID/Info                            : UTF-8 Plain Text
  261. Duration                                 : 1 h 24 min
  262. Bit rate                                 : 76 b/s
  263. Count of elements                        : 1023
  264. Stream size                              : 47.1 KiB (0%)
  265. Language                                 : Norwegian Bokmal
  266. Default                                  : No
  267. Forced                                   : No
  268. Text #19
  269. ID                                       : 21
  270. Format                                   : UTF-8
  271. Codec ID                                 : S_TEXT/UTF8
  272. Codec ID/Info                            : UTF-8 Plain Text
  273. Duration                                 : 1 h 24 min
  274. Bit rate                                 : 76 b/s
  275. Count of elements                        : 1033
  276. Stream size                              : 47.4 KiB (0%)
  277. Language                                 : Dutch
  278. Default                                  : No
  279. Forced                                   : No
  280. Text #20
  281. ID                                       : 22
  282. Format                                   : UTF-8
  283. Codec ID                                 : S_TEXT/UTF8
  284. Codec ID/Info                            : UTF-8 Plain Text
  285. Duration                                 : 1 h 24 min
  286. Bit rate                                 : 76 b/s
  287. Count of elements                        : 1189
  288. Stream size                              : 47.1 KiB (0%)
  289. Language                                 : Polish
  290. Default                                  : No
  291. Forced                                   : No
  292. Text #21
  293. ID                                       : 23
  294. Format                                   : UTF-8
  295. Codec ID                                 : S_TEXT/UTF8
  296. Codec ID/Info                            : UTF-8 Plain Text
  297. Duration                                 : 1 h 24 min
  298. Bit rate                                 : 83 b/s
  299. Count of elements                        : 1199
  300. Stream size                              : 51.6 KiB (0%)
  301. Title                                    : European
  302. Language                                 : Portuguese
  303. Default                                  : No
  304. Forced                                   : No
  305. Text #22
  306. ID                                       : 24
  307. Format                                   : UTF-8
  308. Codec ID                                 : S_TEXT/UTF8
  309. Codec ID/Info                            : UTF-8 Plain Text
  310. Duration                                 : 1 h 24 min
  311. Bit rate                                 : 85 b/s
  312. Count of elements                        : 1258
  313. Stream size                              : 52.9 KiB (0%)
  314. Title                                    : Brazilian
  315. Language                                 : Portuguese
  316. Default                                  : No
  317. Forced                                   : No
  318. Text #23
  319. ID                                       : 25
  320. Format                                   : UTF-8
  321. Codec ID                                 : S_TEXT/UTF8
  322. Codec ID/Info                            : UTF-8 Plain Text
  323. Duration                                 : 1 h 24 min
  324. Bit rate                                 : 85 b/s
  325. Count of elements                        : 1259
  326. Stream size                              : 53.0 KiB (0%)
  327. Language                                 : Romanian
  328. Default                                  : No
  329. Forced                                   : No
  330. Text #24
  331. ID                                       : 26
  332. Format                                   : UTF-8
  333. Codec ID                                 : S_TEXT/UTF8
  334. Codec ID/Info                            : UTF-8 Plain Text
  335. Duration                                 : 1 h 24 min
  336. Bit rate                                 : 79 b/s
  337. Count of elements                        : 1111
  338. Stream size                              : 49.2 KiB (0%)
  339. Language                                 : Swedish
  340. Default                                  : No
  341. Forced                                   : No
  342. Text #25
  343. ID                                       : 27
  344. Format                                   : UTF-8
  345. Codec ID                                 : S_TEXT/UTF8
  346. Codec ID/Info                            : UTF-8 Plain Text
  347. Duration                                 : 1 h 24 min
  348. Bit rate                                 : 209 b/s
  349. Count of elements                        : 1277
  350. Stream size                              : 129 KiB (0%)
  351. Language                                 : Thai
  352. Default                                  : No
  353. Forced                                   : No
  354. Text #26
  355. ID                                       : 28
  356. Format                                   : UTF-8
  357. Codec ID                                 : S_TEXT/UTF8
  358. Codec ID/Info                            : UTF-8 Plain Text
  359. Duration                                 : 1 h 24 min
  360. Bit rate                                 : 86 b/s
  361. Count of elements                        : 1244
  362. Stream size                              : 53.3 KiB (0%)
  363. Language                                 : Turkish
  364. Default                                  : No
  365. Forced                                   : No
  366. Text #27
  367. ID                                       : 29
  368. Format                                   : UTF-8
  369. Codec ID                                 : S_TEXT/UTF8
  370. Codec ID/Info                            : UTF-8 Plain Text
  371. Duration                                 : 1 h 24 min
  372. Bit rate                                 : 107 b/s
  373. Count of elements                        : 1238
  374. Stream size                              : 66.5 KiB (0%)
  375. Language                                 : Vietnamese
  376. Default                                  : No
  377. Forced                                   : No
  378. Text #28
  379. ID                                       : 30
  380. Format                                   : UTF-8
  381. Codec ID                                 : S_TEXT/UTF8
  382. Codec ID/Info                            : UTF-8 Plain Text
  383. Duration                                 : 1 h 24 min
  384. Bit rate                                 : 72 b/s
  385. Count of elements                        : 1268
  386. Stream size                              : 44.9 KiB (0%)
  387. Title                                    : Simplified
  388. Language                                 : Chinese
  389. Default                                  : No
  390. Forced                                   : No
  391. Text #29
  392. ID                                       : 31
  393. Format                                   : UTF-8
  394. Codec ID                                 : S_TEXT/UTF8
  395. Codec ID/Info                            : UTF-8 Plain Text
  396. Duration                                 : 1 h 24 min
  397. Bit rate                                 : 65 b/s
  398. Count of elements                        : 1323
  399. Stream size                              : 40.5 KiB (0%)
  400. Title                                    : Traditional
  401. Language                                 : Chinese
  402. Default                                  : No
  403. Forced                                   : No
复制代码






                                       
                                       

                                       
                                       
                                       




回复

使用道具 举报

懒得打字嘛,点击右侧快捷回复 【右侧内容,后台自定义】
您需要登录后才可以回帖 登录 | 立即加入

本版积分规则

Archiver|小黑屋| 蓝光电影网 |网站地图

Copyright © 2021 Comsenz Inc. Powered by 蓝光电影网

蓝光电影网

本站内容由用户自主分享和转载自互联网,转载目的在于传递更多信息,并不代表本网赞同其观点和对其真实性负责。

如有侵权、违反国家法律政策行为,请联系我们,我们会第一时间及时清除和处理!

举报反馈邮箱:[email protected]

快速回复 返回顶部 返回列表