找回密码

蓝光电影网

查看: 34|回复: 0

[剧情] 眠狂四郎女妖剑 Sleepy.Eyes.of.Death.Sword.of.Seduction.1964.JAPANESE.1080p.WEBRip.x264-VXT 1.54GB

[复制链接]
蓝光币
511
发表于 2021-8-20 01:13:46 | 显示全部楼层 |阅读模式


◎译  名 眠狂四郎女妖剑/Kyoshiro Nemuri at Bay/Nemuri Kyoshiro 4: Joyoken/Nemuri Kyoshiro: The Passionate Sword/Sleepy Eyes of Death: Sword of Seduction
◎片  名 眠狂四郎女妖剣
◎年  代 1964
◎产  地 日本
◎类  别 剧情
◎语  言 日语
◎上映日期 1964-10-17(日本)
◎IMDb评分  6.8/10 from 162 users
◎IMDb链接  https://www.imdb.com/title/tt0123188/
◎豆瓣评分 6.5/10 from 65 users
◎豆瓣链接 https://movie.douban.com/subject/3302538/
◎片  长 87分钟
◎导  演 池广一夫 Kazuo Ikehiro
◎编  剧 柴田炼三郎 Renzabur? Shibata
◎主  演 市川雷藏 Raiz? Ichikawa
       阿井美千子 Michiko Ai
       伊达三郎 Saburo Date
       藤川准 Jun Fujikawa
       藤村志保 Shiho Fujimura
       福井隆次 Takaji Fukui
       浜村淳 Jun Hamamura
       春川真澄 Masumi Harukawa
       稻叶义男 Yoshio Inaba
       木村元 Gen Kimura
       小林胜彦 Katsuhiko Kobayashi
       久保菜穗子 Naoko Kubo
       中谷一郎 Ichir? Nakatani
       南条新太郎 Shintar? Nanj?
       根岸明美 Akemi Negishi
       冲时男 Tokio Oki
       杉山昌三九 Sh?saku Sugiyama
       玉置一惠 Kazue Tamaki
       若山富三郎 Tomisaburo Wakayama
◎标  签 日本 | 市川雷藏 | 池广一夫 | 日本电影 | 池広一夫 | 1964 | 市川雷蔵 | 1960s
◎简  介


  狂四郎はある朝浜町河岸に横たえられた、全裸の美男二人の死体を見た。鳥蔵と名乗る男はそれが、大奥の中臈?綾路と、お半下女中の美乃であると狂四郎に告げた。だがその烏蔵は隠れ切支丹の科で役人に捕えられた。この頃江戸では、豪商備前屋が、金力を兵器に、老中水野忠成を抱き込み、大奥の女達に秘かに麻片を送っていた。浜町河岸の死体は、残暴な菊姫に麻薬責めにされ殺されたのだった。そして菊姫は鳥蔵の妹小鈴に、兄を救う手段と称して、牢内のバテレン、ヨハネス?セルディニイを誘惑させた。しかし、約束は守られず、鳥蔵は殺され、小鈴は自殺して果てた。狂四郎は、鳥蔵が死ぬ間際に、浜松へびるぜん志摩という狂四郎と血のつながる女がいると聞かされ、浜松へと旅立った。途中、狂四郎は、備前屋の刺客や、情慾のとりこになった巫女に悩まされたが、愛刀無相正宗がその難を救った。大井川で足どめされた狂四郎は、妖艶な鳥追い女と旅篭に入った。女と酒を飲み、女体を抱き寄せた狂四郎は、目がかすむのを知り惊诧とした。女は、狂四郎の目をつぶすために使わされたのだった。だが、狂四郎の目は、宿敵少林寺拳法の達人陳孫の手当で回復した。再び浜松に向った狂四郎は、隠れ切支丹に案内されて舟小屋で、びるぜん志摩に会った。しかし、隠れ切支丹を追う役人のとりまきで、びるぜん志摩は肩口に傷を負った。狂四郎は、優口に口をつけて、その毒を出そうとしたが、その瞬間清純な尼僧の顔に模糊の脸色が走った。舟小屋の外に連れ出した狂四郎は、菊姫の配下武部光源一味に襲われ、志摩を海上につれ去られた。備前屋のまわし者や武部らを斬り倒し舟倉でびるぜん志摩に会った狂四郎は、志摩が備前屋のまわし者で切支丹になりすましては、信徒を売っていたこと、狂四郎を船にひき寄せるため配下にさらわれたことを知り、責めた。妖艶な脸色に変った尼僧は、肌をあらわに狂四郎を誘ったが、狂四郎の剣は一刀のもとに斬った。そこに宿敵陳孫が現われ、念願の一騎打ちとなったが、血にぬれた狂四郎の剣は陳孫に深傷をあたえた。勝負はあずけた!海に逃げる陳孫を残して、狂四郎は志摩の骨を抱いて海上の人となった。
  1. Video
  2. ID                                       : 1
  3. Format                                   : AVC
  4. Format/Info                              : Advanced Video Codec
  5. Format profile                           : [email protected]
  6. Format settings                          : CABAC / 4 Ref Frames
  7. Format settings, CABAC                   : Yes
  8. Format settings, Reference frames        : 4 frames
  9. Codec ID                                 : avc1
  10. Codec ID/Info                            : Advanced Video Coding
  11. Duration                                 : 1 h 20 min
  12. Bit rate                                 : 2 500 kb/s
  13. Width                                    : 1 920 pixels
  14. Height                                   : 816 pixels
  15. Display aspect ratio                     : 2.35:1
  16. Frame rate mode                          : Constant
  17. Frame rate                               : 30.000 FPS
  18. Color space                              : YUV
  19. Chroma subsampling                       : 4:2:0
  20. Bit depth                                : 8 bits
  21. Scan type                                : Progressive
  22. Bits/(Pixel*Frame)                       : 0.053
  23. Stream size                              : 1.41 GiB (91%)
  24. Writing library                          : x264 core 152 r2851M ba24899
  25. Encoding settings                        : cabac=1 / ref=4 / deblock=1:-1:-1 / analyse=0x3:0x113 / me=umh / subme=9 / psy=1 / psy_rd=1.00:0.15 / mixed_ref=1 / me_range=24 / chroma_me=1 / trellis=2 / 8x8dct=1 / cqm=0 / deadzone=21,11 / fast_pskip=1 / chroma_qp_offset=-3 / threads=16 / lookahead_threads=4 / sliced_threads=0 / nr=0 / decimate=1 / interlaced=0 / bluray_compat=0 / constrained_intra=0 / bframes=3 / b_pyramid=2 / b_adapt=2 / b_bias=0 / direct=3 / weightb=1 / open_gop=0 / weightp=2 / keyint=250 / keyint_min=25 / scenecut=40 / intra_refresh=0 / rc_lookahead=50 / rc=2pass / mbtree=1 / bitrate=2500 / ratetol=1.0 / qcomp=0.60 / qpmin=0 / qpmax=69 / qpstep=4 / cplxblur=20.0 / qblur=0.5 / vbv_maxrate=31250 / vbv_bufsize=31250 / nal_hrd=none / filler=0 / ip_ratio=1.40 / aq=3:1.00
  26. Encoded date                             : UTC 2020-09-27 18:13:37
  27. Tagged date                              : UTC 2020-09-27 18:13:37
  28. Codec configuration box                  : avcC
  29. Audio
  30. ID                                       : 2
  31. Format                                   : AAC LC
  32. Format/Info                              : Advanced Audio Codec Low Complexity
  33. Codec ID                                 : mp4a-40-2
  34. Duration                                 : 1 h 20 min
  35. Bit rate mode                            : Constant
  36. Bit rate                                 : 224 kb/s
  37. Channel(s)                               : 2 channels
  38. Channel layout                           : L R
  39. Sampling rate                            : 48.0 kHz
  40. Frame rate                               : 46.875 FPS (1024 SPF)
  41. Compression mode                         : Lossy
  42. Stream size                              : 129 MiB (8%)
  43. Language                                 : Japanese
  44. Default                                  : Yes
  45. Alternate group                          : 1
  46. Encoded date                             : UTC 2020-09-27 18:13:37
  47. Tagged date                              : UTC 2020-09-27 18:13:37
复制代码





                                       
                                       

                                       
                                       
                                       




回复

使用道具 举报

懒得打字嘛,点击右侧快捷回复 【右侧内容,后台自定义】
您需要登录后才可以回帖 登录 | 立即加入

本版积分规则

Archiver|小黑屋| 蓝光电影网 |网站地图

Copyright © 2021 Comsenz Inc. Powered by 蓝光电影网

蓝光电影网

本站内容由用户自主分享和转载自互联网,转载目的在于传递更多信息,并不代表本网赞同其观点和对其真实性负责。

如有侵权、违反国家法律政策行为,请联系我们,我们会第一时间及时清除和处理!

举报反馈邮箱:[email protected]

快速回复 返回顶部 返回列表