找回密码

蓝光电影网

查看: 37|回复: 0

[剧情] 原以为命中注定的恋爱不会发生在我身上/原以为命中注定的恋爱不会降临 My.Long.Awaited.Love.Story.2016.JAPANESE.1080p.WEBRip.x264-VXT 1.72GB

[复制链接]
蓝光币
515
发表于 2021-8-20 01:14:05 | 显示全部楼层 |阅读模式


◎译  名 原以为射中必定的恋爱不会发生在我身上/原以为射中必定的恋爱不会来临/我想自己無法遇上命運般的戀愛(港)
◎片  名 わたしに運命の恋なんてありえないって思ってた
◎年  代 2016
◎产  地 日本
◎类  别 剧情 / 恋爱
◎语  言 日语
◎上映日期 2016-12-20(日本)
◎IMDb评分  6/10 from 67 users
◎IMDb链接  https://www.imdb.com/title/tt6264864/
◎豆瓣评分 7.4/10 from 8287 users
◎豆瓣链接 https://movie.douban.com/subject/26918603/
◎片  长 91分钟
◎导  演 波多野贵文 Takafumi Hatano
◎编  剧 大岛里美 Satomi Oshima
◎主  演 多部未华子 Mikako Tabe
       高桥平生 Issey Takahashi
       大政绚 Aya Ohmasa
       志尊淳 Jun Shison
       田中要次 Y?ji Tanaka
       山田裕贵 Y?ki Yamada
       忍成修吾 Sh?go Oshinari
◎标  签 日剧 | 日本 | 恋爱 | 日剧SP | 2016 | SP | 少女心 | 纯爱
◎简  介


  白野莉子(多部未华子 饰)是一位恋爱养成游戏设想师,专职撰写恋爱养成游戏的剧本,是以脑海里塞满了对爱情的天马行空不切现实的空想,而且对现实里的不成器的汉子们以及同他们的恋爱布满了失望。黑川壮一郎(高桥平生 饰)是APP公司的社长,他找到了莉子,拜托她建造一款手机恋爱游戏。
  
  壮一郎虽然样貌一表人材,却丝绝不晓得女性心里的弯弯绕,过于正直的他和莉子之间自然发生了很多的冲突,甚至爆发了剧烈的争持。现实上,壮一郎一向暗恋着部属桃濑(大政绚 饰),苦于不晓得若何表达豪情的他拜托莉子做自己的“恋爱指导”。在莉子的帮助下,壮一郎和桃濑之间的间隔越来越近,与此同时,心里里深深的失落让莉子意想到,自己似乎已经爱上了壮一郎。
  1. Video
  2. ID                                       : 1
  3. Format                                   : AVC
  4. Format/Info                              : Advanced Video Codec
  5. Format profile                           : [email protected]
  6. Format settings                          : CABAC / 4 Ref Frames
  7. Format settings, CABAC                   : Yes
  8. Format settings, Reference frames        : 4 frames
  9. Codec ID                                 : avc1
  10. Codec ID/Info                            : Advanced Video Coding
  11. Duration                                 : 1 h 30 min
  12. Bit rate                                 : 2 500 kb/s
  13. Width                                    : 1 920 pixels
  14. Height                                   : 1 080 pixels
  15. Display aspect ratio                     : 16:9
  16. Frame rate mode                          : Constant
  17. Frame rate                               : 29.970 (29970/1000/189150) FPS
  18. Color space                              : YUV
  19. Chroma subsampling                       : 4:2:0
  20. Bit depth                                : 8 bits
  21. Scan type                                : Progressive
  22. Bits/(Pixel*Frame)                       : 0.040
  23. Stream size                              : 1.58 GiB (91%)
  24. Writing library                          : x264 core 152 r2851M ba24899
  25. Encoding settings                        : cabac=1 / ref=4 / deblock=1:-1:-1 / analyse=0x3:0x113 / me=umh / subme=9 / psy=1 / psy_rd=1.00:0.15 / mixed_ref=1 / me_range=24 / chroma_me=1 / trellis=2 / 8x8dct=1 / cqm=0 / deadzone=21,11 / fast_pskip=1 / chroma_qp_offset=-3 / threads=16 / lookahead_threads=4 / sliced_threads=0 / nr=0 / decimate=1 / interlaced=0 / bluray_compat=0 / constrained_intra=0 / bframes=3 / b_pyramid=2 / b_adapt=2 / b_bias=0 / direct=3 / weightb=1 / open_gop=0 / weightp=2 / keyint=250 / keyint_min=25 / scenecut=40 / intra_refresh=0 / rc_lookahead=50 / rc=2pass / mbtree=1 / bitrate=2500 / ratetol=1.0 / qcomp=0.60 / qpmin=0 / qpmax=69 / qpstep=4 / cplxblur=20.0 / qblur=0.5 / vbv_maxrate=31250 / vbv_bufsize=31250 / nal_hrd=none / filler=0 / ip_ratio=1.40 / aq=3:1.00
  26. Encoded date                             : UTC 2020-09-27 18:40:37
  27. Tagged date                              : UTC 2020-09-27 18:40:37
  28. Codec configuration box                  : avcC
  29. Audio
  30. ID                                       : 2
  31. Format                                   : AAC LC
  32. Format/Info                              : Advanced Audio Codec Low Complexity
  33. Codec ID                                 : mp4a-40-2
  34. Duration                                 : 1 h 30 min
  35. Duration_LastFrame                       : -11 ms
  36. Bit rate mode                            : Constant
  37. Bit rate                                 : 224 kb/s
  38. Channel(s)                               : 2 channels
  39. Channel layout                           : L R
  40. Sampling rate                            : 48.0 kHz
  41. Frame rate                               : 46.875 FPS (1024 SPF)
  42. Compression mode                         : Lossy
  43. Stream size                              : 145 MiB (8%)
  44. Language                                 : Japanese
  45. Default                                  : Yes
  46. Alternate group                          : 1
  47. Encoded date                             : UTC 2020-09-27 18:40:37
  48. Tagged date                              : UTC 2020-09-27 18:40:37
复制代码






                                       
                                       

                                       
                                       
                                       




回复

使用道具 举报

懒得打字嘛,点击右侧快捷回复 【右侧内容,后台自定义】
您需要登录后才可以回帖 登录 | 立即加入

本版积分规则

Archiver|小黑屋| 蓝光电影网 |网站地图

Copyright © 2021 Comsenz Inc. Powered by 蓝光电影网

蓝光电影网

本站内容由用户自主分享和转载自互联网,转载目的在于传递更多信息,并不代表本网赞同其观点和对其真实性负责。

如有侵权、违反国家法律政策行为,请联系我们,我们会第一时间及时清除和处理!

举报反馈邮箱:[email protected]

快速回复 返回顶部 返回列表