找回密码

蓝光电影网

查看: 30|回复: 0

[剧情] 眠狂四郎11人肌蜘蛛 Sleepy.Eyes.of.Death.In.the.Spiders.Lair.1968.JAPANESE.1080p.WEBRip.x264-VXT 1.53GB

[复制链接]
蓝光币
515
发表于 2021-8-20 01:14:14 | 显示全部楼层 |阅读模式


◎译  名 眠狂四郎11人肌蜘蛛/Sleepy Eyes of Death: In the Spider's Lair
◎片  名 眠狂四郎人肌蜘蛛
◎年  代 1968
◎产  地 日本
◎类  别 剧情 / 行动
◎语  言 日语
◎上映日期 1968-05-01(日本)
◎IMDb评分  7/10 from 75 users
◎IMDb链接  https://www.imdb.com/title/tt0148934/
◎豆瓣评分 /10 from 0 users
◎豆瓣链接 https://movie.douban.com/subject/2070481/
◎片  长 81分钟
◎导  演 安田公义 Kimiyoshi Yasuda
◎编  剧 星川清司 Seiji Hoshikawa / 柴田炼三郎 Renzabur? Shibata
◎主  演 市川雷藏 Raiz? Ichikawa
       绿魔子 Mako Midori
       川津祐介 Yusuke Kawazu
       渡边文雄 Fumio Watanabe
       寺田农 Minori Terada
       伊达三郎 Saburo Date
       三条魔子 Mako Sanj?
◎标  签 日本电影 | 安田公义 | 市川雷藏 | 日本 | 绿魔子 | 电影 | 市川雷蔵 | 已存
◎简  介


  狂四郎の生首がほしい! 犯せと誘う熱い肌! 生きてかえれぬ猟奇の館!
  
  ●猟奇性から時代劇ファンに加えてカルト映画ファンの支持も高いシリーズ第11作!
  
  ●淫蕩で残暴な姫君を個性派女優、緑魔子! その双生児の兄で妹に倒錯した爱情を抱く兄を川津祐介!狂四郎と同じ黒ミサで生まれた青年に寺田農!
  
  ●毒殺マニアの兄とサディスティックな妹の近親相姦、大都の死体が転がる中でのセックスなど猟奇アイテム満載!
  
  江戸への帰路、母の墓のある村に14年ぶりに立ち寄った狂四郎は、墓守の七蔵から村が寂れている来由を聞く。
  
  大烏の森の中の鬼館と呼ばれる屋敷に将軍の妾腹、土門家武とその妹の紫が住み、村の若い男女を幽閉して残暴の限りを尽くしていると言うのだ。
  
  七蔵の元には狂四郎と同じ黒ミサで生まれた子、兵吾という青年がいたが、その兵吾にも館からの迎えがやって来た???。
  1. Video
  2. ID                                       : 1
  3. Format                                   : AVC
  4. Format/Info                              : Advanced Video Codec
  5. Format profile                           : [email protected]
  6. Format settings                          : CABAC / 4 Ref Frames
  7. Format settings, CABAC                   : Yes
  8. Format settings, Reference frames        : 4 frames
  9. Codec ID                                 : avc1
  10. Codec ID/Info                            : Advanced Video Coding
  11. Duration                                 : 1 h 20 min
  12. Bit rate                                 : 2 500 kb/s
  13. Width                                    : 1 920 pixels
  14. Height                                   : 812 pixels
  15. Display aspect ratio                     : 2.35:1
  16. Frame rate mode                          : Constant
  17. Frame rate                               : 23.976 (23976/1000/189150) FPS
  18. Color space                              : YUV
  19. Chroma subsampling                       : 4:2:0
  20. Bit depth                                : 8 bits
  21. Scan type                                : Progressive
  22. Bits/(Pixel*Frame)                       : 0.067
  23. Stream size                              : 1.40 GiB (92%)
  24. Writing library                          : x264 core 152 r2851M ba24899
  25. Encoding settings                        : cabac=1 / ref=4 / deblock=1:-1:-1 / analyse=0x3:0x113 / me=umh / subme=9 / psy=1 / psy_rd=1.00:0.15 / mixed_ref=1 / me_range=24 / chroma_me=1 / trellis=2 / 8x8dct=1 / cqm=0 / deadzone=21,11 / fast_pskip=1 / chroma_qp_offset=-3 / threads=16 / lookahead_threads=4 / sliced_threads=0 / nr=0 / decimate=1 / interlaced=0 / bluray_compat=0 / constrained_intra=0 / bframes=3 / b_pyramid=2 / b_adapt=2 / b_bias=0 / direct=3 / weightb=1 / open_gop=0 / weightp=2 / keyint=250 / keyint_min=25 / scenecut=40 / intra_refresh=0 / rc_lookahead=50 / rc=2pass / mbtree=1 / bitrate=2500 / ratetol=1.0 / qcomp=0.60 / qpmin=0 / qpmax=69 / qpstep=4 / cplxblur=20.0 / qblur=0.5 / vbv_maxrate=31250 / vbv_bufsize=31250 / nal_hrd=none / filler=0 / ip_ratio=1.40 / aq=3:1.00
  26. Encoded date                             : UTC 2020-09-27 18:49:25
  27. Tagged date                              : UTC 2020-09-27 18:49:25
  28. Codec configuration box                  : avcC
  29. Audio
  30. ID                                       : 2
  31. Format                                   : AAC LC
  32. Format/Info                              : Advanced Audio Codec Low Complexity
  33. Codec ID                                 : mp4a-40-2
  34. Duration                                 : 1 h 20 min
  35. Duration_LastFrame                       : -11 ms
  36. Bit rate mode                            : Constant
  37. Bit rate                                 : 224 kb/s
  38. Channel(s)                               : 2 channels
  39. Channel layout                           : L R
  40. Sampling rate                            : 48.0 kHz
  41. Frame rate                               : 46.875 FPS (1024 SPF)
  42. Compression mode                         : Lossy
  43. Stream size                              : 128 MiB (8%)
  44. Language                                 : Japanese
  45. Default                                  : Yes
  46. Alternate group                          : 1
  47. Encoded date                             : UTC 2020-09-27 18:49:25
  48. Tagged date                              : UTC 2020-09-27 18:49:25
复制代码




                                       
                                       

                                       
                                       
                                       




回复

使用道具 举报

懒得打字嘛,点击右侧快捷回复 【右侧内容,后台自定义】
您需要登录后才可以回帖 登录 | 立即加入

本版积分规则

Archiver|小黑屋| 蓝光电影网 |网站地图

Copyright © 2021 Comsenz Inc. Powered by 蓝光电影网

蓝光电影网

本站内容由用户自主分享和转载自互联网,转载目的在于传递更多信息,并不代表本网赞同其观点和对其真实性负责。

如有侵权、违反国家法律政策行为,请联系我们,我们会第一时间及时清除和处理!

举报反馈邮箱:[email protected]

快速回复 返回顶部 返回列表