找回密码

蓝光电影网

查看: 51|回复: 0

[剧情] 蓝衣暴警 Gang.in.Blue.1996.1080p.AMZN.WEBRip.DDP2.0.x264-NTb 6.59GB

[复制链接]
蓝光币
519
发表于 2021-8-20 01:14:24 | 显示全部楼层 |阅读模式


◎译  名 蓝衣暴警
◎片  名 Gang in Blue
◎年  代 1996
◎产  地 美国
◎类  别 剧情 / 行动 / 犯罪 / 惊栗
◎上映日期 1997-07-26
◎IMDb评分  5.3/10 from 358 users
◎IMDb链接  https://www.imdb.com/title/tt0116393/
◎豆瓣评分 /10 from 0 users
◎豆瓣链接 https://movie.douban.com/subject/1302970/
◎导  演 马文·范·皮伯斯 Melvin Van Peebles / 马里奥·范·皮布尔斯 Mario Van Peebles
◎主  演 Cynda Williams
       肖恩·麦卡恩 Sean McCann
       Joel Gordon
       扎克·格雷尼尔 Zach Grenier
       J·T·沃尔什 J.T. Walsh
       马文·范·皮伯斯 Melvin Van Peebles
       马里奥·范·皮布尔斯 Mario Van Peebles
       史蒂芬·朗 Stephen Lang
       乔什·布洛林 Josh Brolin
◎标  签 美国 | 马里奥范皮布尔斯 | 马文范皮布尔斯 | 辛恩达威廉斯 | 史蒂芬朗 | 乔什布洛林 | 1997
◎简  介


  差人里面也有莠民,少数的白人差人由于种族优越感,专找少数民族动手,罗德奋掉臂身的要揭穿他们的假面具,观察局也派出了捕快在差人局卧底,为的是要找失工作的真相。
  1. Video
  2. ID                                       : 1
  3. Format                                   : AVC
  4. Format/Info                              : Advanced Video Codec
  5. Format profile                           : [email protected]
  6. Format settings                          : CABAC / 4 Ref Frames
  7. Format settings, CABAC                   : Yes
  8. Format settings, Reference frames        : 4 frames
  9. Codec ID                                 : V_MPEG4/ISO/AVC
  10. Duration                                 : 1 h 37 min
  11. Bit rate mode                            : Constant
  12. Bit rate                                 : 9 495 kb/s
  13. Nominal bit rate                         : 10 000 kb/s
  14. Width                                    : 1 920 pixels
  15. Height                                   : 1 080 pixels
  16. Display aspect ratio                     : 16:9
  17. Frame rate mode                          : Constant
  18. Frame rate                               : 23.976 (24000/1001/189150) FPS
  19. Color space                              : YUV
  20. Chroma subsampling                       : 4:2:0
  21. Bit depth                                : 8 bits
  22. Scan type                                : Progressive
  23. Bits/(Pixel*Frame)                       : 0.191
  24. Stream size                              : 6.44 GiB (98%)
  25. Default                                  : Yes
  26. Forced                                   : No
  27. Color range                              : Limited
  28. Color primaries                          : BT.709
  29. Transfer characteristics                 : BT.709
  30. Matrix coefficients                      : BT.709
  31. Audio
  32. ID                                       : 2
  33. Format                                   : E-AC-3
  34. Format/Info                              : Enhanced AC-3
  35. Commercial name                          : Dolby Digital Plus
  36. Codec ID                                 : A_EAC3
  37. Duration                                 : 1 h 37 min
  38. Bit rate mode                            : Constant
  39. Bit rate                                 : 224 kb/s
  40. Channel(s)                               : 2 channels
  41. Channel layout                           : L R
  42. Sampling rate                            : 48.0 kHz
  43. Frame rate                               : 31.250 FPS (1536 SPF)
  44. Compression mode                         : Lossy
  45. Stream size                              : 156 MiB (2%)
  46. Language                                 : English
  47. Service kind                             : Complete Main
  48. Default                                  : Yes
  49. Forced                                   : No
复制代码






                                       
                                       

                                       
                                       
                                       




回复

使用道具 举报

懒得打字嘛,点击右侧快捷回复 【右侧内容,后台自定义】
您需要登录后才可以回帖 登录 | 立即加入

本版积分规则

Archiver|小黑屋| 蓝光电影网 |网站地图

Copyright © 2021 Comsenz Inc. Powered by 蓝光电影网

蓝光电影网

本站内容由用户自主分享和转载自互联网,转载目的在于传递更多信息,并不代表本网赞同其观点和对其真实性负责。

如有侵权、违反国家法律政策行为,请联系我们,我们会第一时间及时清除和处理!

举报反馈邮箱:[email protected]

快速回复 返回顶部 返回列表