找回密码

蓝光电影网

查看: 28|回复: 0

[剧情] 太晚说再见 Too.Late.to.Say.Goodbye.2009.1080p.AMZN.WEBRip.DDP2.0.x264-NTb 5.95GB

[复制链接]
蓝光币
623
发表于 2021-8-20 01:14:55 | 显示全部楼层 |阅读模式


◎译  名 太晚说再会
◎片  名 Too Late to Say Goodbye
◎年  代 2009
◎产  地 美国
◎类  别 剧情
◎语  言 英语
◎上映日期 2009
◎IMDb评分  5.2/10 from 490 users
◎IMDb链接  https://www.imdb.com/title/tt1486861/
◎豆瓣评分 5.2/10 from 45 users
◎豆瓣链接 https://movie.douban.com/subject/5165612/
◎片  长 95分钟
◎导  演 诺玛·贝利 Norma Bailey
◎编  剧 Fab Filippo / Adam Till / Donald Martin / Ann Rule
◎主  演 克里斯蒂安·马廷 Christian Martyn
       史蒂夫·贝尔福德 Steve Belford
       米歇尔·赫德 Michelle Hurd
       尤金·克拉克 Eugene Clark
       亚尼克·比森 Yannick Bisson
       罗伦·荷莉 Lauren Holly
       罗伯·劳 Rob Lowe
       阿特·欣德尔 Art Hindle
◎标  签 犯罪 | 美国 | 剧情 | ? | 美国电影 | 电影 | 悬疑 | 差
◎简  介


  The story of Jenn and Bart Corbin(Lowe); a couple who appear to have the perfect marriage. Wedded bliss, though, is not always what it seems, as Jenn discovers Bart’s affair with a beautiful co-worker. Distraught, Jenn turns to the Internet, where she makes a connection with a charming mystery man. When Jenn is found dead – apparently the result of a devastating suicide – her loving sister insists that Jenn would never have willingly taken her own life and left her children without their mother. Could the killer be her husband, who has some dark secrets of his own, or possibly her online suitor, who may not be exactly the person Jenn had imagined?
  1. Video
  2. ID                                       : 1
  3. Format                                   : AVC
  4. Format/Info                              : Advanced Video Codec
  5. Format profile                           : [email protected]
  6. Format settings                          : CABAC / 4 Ref Frames
  7. Format settings, CABAC                   : Yes
  8. Format settings, Reference frames        : 4 frames
  9. Codec ID                                 : V_MPEG4/ISO/AVC
  10. Duration                                 : 1 h 28 min
  11. Bit rate mode                            : Constant
  12. Bit rate                                 : 9 351 kb/s
  13. Nominal bit rate                         : 10 000 kb/s
  14. Width                                    : 1 920 pixels
  15. Height                                   : 1 080 pixels
  16. Display aspect ratio                     : 16:9
  17. Frame rate mode                          : Constant
  18. Frame rate                               : 23.976 (24000/1001/189150) FPS
  19. Color space                              : YUV
  20. Chroma subsampling                       : 4:2:0
  21. Bit depth                                : 8 bits
  22. Scan type                                : Progressive
  23. Bits/(Pixel*Frame)                       : 0.188
  24. Stream size                              : 5.81 GiB (98%)
  25. Default                                  : Yes
  26. Forced                                   : No
  27. Color range                              : Limited
  28. Color primaries                          : BT.709
  29. Transfer characteristics                 : BT.709
  30. Matrix coefficients                      : BT.709
  31. Audio
  32. ID                                       : 2
  33. Format                                   : E-AC-3
  34. Format/Info                              : Enhanced AC-3
  35. Commercial name                          : Dolby Digital Plus
  36. Codec ID                                 : A_EAC3
  37. Duration                                 : 1 h 28 min
  38. Bit rate mode                            : Constant
  39. Bit rate                                 : 224 kb/s
  40. Channel(s)                               : 2 channels
  41. Channel layout                           : L R
  42. Sampling rate                            : 48.0 kHz
  43. Frame rate                               : 31.250 FPS (1536 SPF)
  44. Compression mode                         : Lossy
  45. Stream size                              : 143 MiB (2%)
  46. Language                                 : English
  47. Service kind                             : Complete Main
  48. Default                                  : Yes
  49. Forced                                   : No
复制代码






                                       
                                       

                                       
                                       
                                       




回复

使用道具 举报

懒得打字嘛,点击右侧快捷回复 【右侧内容,后台自定义】
您需要登录后才可以回帖 登录 | 立即加入

本版积分规则

Archiver|小黑屋| 蓝光电影网 |网站地图

Copyright © 2021 Comsenz Inc. Powered by 蓝光电影网

蓝光电影网

本站内容由用户自主分享和转载自互联网,转载目的在于传递更多信息,并不代表本网赞同其观点和对其真实性负责。

如有侵权、违反国家法律政策行为,请联系我们,我们会第一时间及时清除和处理!

举报反馈邮箱:[email protected]

快速回复 返回顶部 返回列表