找回密码

蓝光电影网

查看: 32|回复: 0

[剧情] 丰收月下之舞 Dancing.At.The.Harvest.Moon.2002.1080p.AMZN.WEBRip.DDP5.1.x264-TEPES 6.01GB

[复制链接]
蓝光币
511
发表于 2021-8-20 01:15:02 | 显示全部楼层 |阅读模式


◎译  名 丰收月下之舞
◎片  名 Dancing at the Harvest Moon
◎年  代 2002
◎产  地 美国
◎类  别 剧情 / 恋爱
◎语  言 英语
◎上映日期 2002-10-20
◎IMDb评分  5.7/10 from 311 users
◎IMDb链接  https://www.imdb.com/title/tt0270908/
◎豆瓣评分 /10 from 0 users
◎豆瓣链接 https://movie.douban.com/subject/1875061/
◎片  长 84分钟
◎导  演 鲍比·罗斯 Bobby Roth
◎编  剧 彼得·纳尔逊 Peter Nelson
◎主  演 Josh Holland
       苏珊·安斯波 Susan Anspach
       杰奎琳·比塞特 Jacqueline Bisset
       埃里克·马比斯 Eric Mabius
       罗布·尼尔森 Rob Nilsson
       瓦莱丽·哈勃 Valerie Harper
       香农·戴 Shannon Day
       娜维·罗华 Navi Rawat
       比利·维拉 Billy Vera
       Cathy Lee Crosby
       卡门·阿尔根齐亚诺 Carmen Argenziano
       吉娜·加列戈 Gina Gallego
       布莱恩·雷科内尔 Brian Leckner
       Kathy McCarthy
       南·马丁 Nan Martin
       Chris Carver
       邦尼·鲁特 Bonnie Root
       Cari Shayne
       尤金·罗奇 Eugene Roche
       尼克?曼库索 Nick Mancuso
◎标  签 美国 | 电影 | 恋爱 | CCTV6 | 丰收月下之舞 | 温情 | 查泰莱夫人之风华旷世 | 杰奎琳·比塞特
◎简  介


  玛吉在一所大学里教英国文学,体面的工作和幸运的家庭让她自豪不已。直到有一天,她亲眼看到了丈夫与情人厮混的情形,今后,她的生活发生了天翻地覆的变化。履历了三个月的心痛和忙碌的工作,暑假终究起头了,玛吉此次决议好好的轻松一下。在一次整理旧物时,她无意间发现了自己和初爱情人帕特里克的照片。回忆起三十年前甜蜜的恋爱,玛吉似乎找到了生活的希望,她决议重新回到阿谁海边的小镇,重温自己旧梦。
  
  
  
  小镇风景照旧,可是帕特里克却在多年后果心脏病归天了,玛吉难以接管这个究竟。重游故地,昔时的情形历历在目,昔时玛吉已经做过招待的月亮舞厅却开张了。那边有太多她和帕特里克的美好回忆,经过一番剧烈的思惟斗争,她决议不管若何要规复月亮舞厅昔时的热烈气象。仳离后的玛吉一无一切,底子没有资金盘下这家店面。经过量方游走,终究有一家银行赞成为她供给存款,玛吉感觉自己已经触碰到了胡想的边沿。在一次筹募资金大会上,玛吉无意中碰到了男孩乔。见到他第一面,玛吉就惊呆了,由于不管从表面还是举止上来说他都和初爱情人帕特里克太像了。更让玛吉万万想不到的是,他居然就是帕特里克的儿子。
  
  
  
  乔自动提出担当舞厅的修缮工作,玛吉默许,但由于帕特里克的原因,她一向不敢面临乔。玛吉的成心躲躲避乔非常不解,更糟糕的是,他发现自己已经爱上了她。发觉到乔的爱意,玛吉冲突不已,乔确切给她纷歧样的感受。但他们年龄相差悬殊,况且他又是帕特里克的儿子,这一切都给这段恋爱设备了障碍。玛吉的舞厅顺遂开业了,乔向她剖明自己的爱意,玛吉终究坦诚面临心里,接管了乔,但更大的麻烦还没有到来。
  
  
  
  乔决议操纵角逐的机遇,把玛吉先容给妈妈,这段恋爱遭到了她老人家的激烈否决,并出言危险玛吉。疾苦的玛吉决议分开乔,并把月亮餐厅赠与了自己的好朋友。但有情人终成家属,就在她要分开的时辰,乔出现了,二人拥抱在一路。
  
  
  
  出色视点:
  
  
  
  这是一部关于胡想与恋爱的家庭片,温馨动人而又不失浪漫。影片建造精巧,故工作节滑稽诙谐,不落俗套,画面色彩亮丽,人物新鲜活泼。片中动听心魄的恋爱、朋友之间纯洁真挚的豪情,相信定会让很多观众为之感动。影片一经上映就大受影迷接待,不单获得了不错的票房成就,还一举荣获了玻璃熊奖等多项国际威望奖项,绝对可以称得上是一部不成多得的家庭故事大片。
  1. Video
  2. ID                                       : 1
  3. Format                                   : AVC
  4. Format/Info                              : Advanced Video Codec
  5. Format profile                           : [email protected]
  6. Format settings                          : CABAC / 4 Ref Frames
  7. Format settings, CABAC                   : Yes
  8. Format settings, Reference frames        : 4 frames
  9. Codec ID                                 : V_MPEG4/ISO/AVC
  10. Duration                                 : 1 h 26 min
  11. Bit rate mode                            : Constant
  12. Bit rate                                 : 9 349 kb/s
  13. Nominal bit rate                         : 10 000 kb/s
  14. Width                                    : 1 920 pixels
  15. Height                                   : 1 080 pixels
  16. Display aspect ratio                     : 16:9
  17. Frame rate mode                          : Constant
  18. Frame rate                               : 23.976 (24000/1001/189150) FPS
  19. Color space                              : YUV
  20. Chroma subsampling                       : 4:2:0
  21. Bit depth                                : 8 bits
  22. Scan type                                : Progressive
  23. Bits/(Pixel*Frame)                       : 0.188
  24. Stream size                              : 5.62 GiB (94%)
  25. Default                                  : Yes
  26. Forced                                   : No
  27. Color range                              : Limited
  28. Color primaries                          : BT.709
  29. Transfer characteristics                 : BT.709
  30. Matrix coefficients                      : BT.709
  31. Audio
  32. ID                                       : 2
  33. Format                                   : E-AC-3
  34. Format/Info                              : Enhanced AC-3
  35. Commercial name                          : Dolby Digital Plus
  36. Codec ID                                 : A_EAC3
  37. Duration                                 : 1 h 26 min
  38. Bit rate mode                            : Constant
  39. Bit rate                                 : 640 kb/s
  40. Channel(s)                               : 6 channels
  41. Channel layout                           : L R C LFE Ls Rs
  42. Sampling rate                            : 48.0 kHz
  43. Frame rate                               : 31.250 FPS (1536 SPF)
  44. Compression mode                         : Lossy
  45. Stream size                              : 396 MiB (6%)
  46. Language                                 : English
  47. Service kind                             : Complete Main
  48. Default                                  : Yes
  49. Forced                                   : No
  50. Text
  51. ID                                       : 3
  52. Format                                   : UTF-8
  53. Codec ID                                 : S_TEXT/UTF8
  54. Codec ID/Info                            : UTF-8 Plain Text
  55. Duration                                 : 1 h 25 min
  56. Bit rate                                 : 66 b/s
  57. Count of elements                        : 1740
  58. Stream size                              : 41.6 KiB (0%)
  59. Language                                 : English
  60. Default                                  : Yes
  61. Forced                                   : No
复制代码





                                       
                                       

                                       
                                       
                                       




回复

使用道具 举报

懒得打字嘛,点击右侧快捷回复 【右侧内容,后台自定义】
您需要登录后才可以回帖 登录 | 立即加入

本版积分规则

Archiver|小黑屋| 蓝光电影网 |网站地图

Copyright © 2021 Comsenz Inc. Powered by 蓝光电影网

蓝光电影网

本站内容由用户自主分享和转载自互联网,转载目的在于传递更多信息,并不代表本网赞同其观点和对其真实性负责。

如有侵权、违反国家法律政策行为,请联系我们,我们会第一时间及时清除和处理!

举报反馈邮箱:[email protected]

快速回复 返回顶部 返回列表