找回密码

蓝光电影网

查看: 29|回复: 0

[剧情] 印度之歌 India.Song.1975.FRENCH.1080p.AMZN.WEBRip.DDP2.0.x264-TEPES 7.91GB

[复制链接]
蓝光币
511
发表于 2021-8-20 01:15:06 | 显示全部楼层 |阅读模式


◎译  名 印度之歌/Marguerite Duras à propos de "India Song"
◎片  名 India Song
◎年  代 1975
◎产  地 法国
◎类  别 剧情 / 恋爱
◎语  言 法语
◎上映日期 1975-06-04(法国)
◎IMDb评分  6.3/10 from 1723 users
◎IMDb链接  https://www.imdb.com/title/tt0073166/
◎豆瓣评分 7.2/10 from 740 users
◎豆瓣链接 https://movie.douban.com/subject/1298347/
◎片  长 120分钟
◎导  演 玛格丽特·杜拉斯 Marguerite Duras
◎编  剧 玛格丽特·杜拉斯 Marguerite Duras
◎主  演 德菲因·塞里格 Delphine Seyrig
       迈克尔·朗斯代尔 Michael Lonsdale
       马修·加里瑞 Mathieu Carrière
       克洛德·曼 Claude Mann
       弗农·多布切夫 Vernon Dobtcheff
       狄迪尔·弗拉蒙 Didier Flamand
       玛格丽特·杜拉斯 Marguerite Duras
       弗朗索瓦兹·勒布伦 Fran?oise Lebrun
       伯努瓦·雅克 Beno?t Jacquot
       让-克洛德·比埃特 Jean-Claude Biette
       帕斯卡尔·卡内 Pascal Kané
◎标  签 法国 | 杜拉斯 | 法国电影 | 玛格丽特·杜拉斯 | 文艺 | Marguerite_Duras | 1975 | MargueriteDuras
◎简  介


  影片由一个印度乡下的拂晓之景徐徐展开,屏幕以后的画外音女声起头漫不尽心却又温柔地报告故事。故事围绕安妮—玛丽?史崔特(德菲因?塞里格 Delphine Seyrig 饰)和她身旁的三个脚色展开——她的情人迈克尔?理查森,沉迷于她的副领事,以及一个生命轨迹与她平行的女乞丐。这个女乞丐从法国在东南亚的殖民地尾随安娜而来,经常骚扰使馆的花园,她的几个孩子卖的卖,死的死;副领事公然自己对她的迷恋受挫后堕入癫狂状态,向麻风病人,狗,甚至自己射击。最初他被撤了职。尔后安娜同朋友到一个岛上去旅游,他也追踪而至,安娜终究也在自己缭乱的豪情中不胜重负,投海自杀。 本片由74个镜头和500多句画外音组成。画面上的人物并不开口措辞,导演杜拉斯对峙一切声音必须是旁白的传统。由此拍出这部“声画分手”之作。
  1. Video
  2. ID                                       : 1
  3. Format                                   : AVC
  4. Format/Info                              : Advanced Video Codec
  5. Format profile                           : [email protected]
  6. Format settings                          : CABAC / 4 Ref Frames
  7. Format settings, CABAC                   : Yes
  8. Format settings, Reference frames        : 4 frames
  9. Codec ID                                 : V_MPEG4/ISO/AVC
  10. Duration                                 : 1 h 54 min
  11. Bit rate mode                            : Constant
  12. Bit rate                                 : 10 000 kb/s
  13. Width                                    : 1 440 pixels
  14. Height                                   : 1 080 pixels
  15. Display aspect ratio                     : 4:3
  16. Frame rate mode                          : Constant
  17. Frame rate                               : 25.000 FPS
  18. Color space                              : YUV
  19. Chroma subsampling                       : 4:2:0
  20. Bit depth                                : 8 bits
  21. Scan type                                : Progressive
  22. Bits/(Pixel*Frame)                       : 0.257
  23. Stream size                              : 7.73 GiB (98%)
  24. Default                                  : Yes
  25. Forced                                   : No
  26. Color range                              : Limited
  27. Color primaries                          : BT.709
  28. Transfer characteristics                 : BT.709
  29. Matrix coefficients                      : BT.709
  30. Audio
  31. ID                                       : 8
  32. Format                                   : E-AC-3
  33. Format/Info                              : Enhanced AC-3
  34. Commercial name                          : Dolby Digital Plus
  35. Codec ID                                 : A_EAC3
  36. Duration                                 : 1 h 54 min
  37. Bit rate mode                            : Constant
  38. Bit rate                                 : 224 kb/s
  39. Channel(s)                               : 2 channels
  40. Channel layout                           : L R
  41. Sampling rate                            : 48.0 kHz
  42. Frame rate                               : 31.250 FPS (1536 SPF)
  43. Compression mode                         : Lossy
  44. Stream size                              : 183 MiB (2%)
  45. Language                                 : French
  46. Service kind                             : Complete Main
  47. Default                                  : Yes
  48. Forced                                   : No
  49. Text #1
  50. ID                                       : 2
  51. Format                                   : UTF-8
  52. Codec ID                                 : S_TEXT/UTF8
  53. Codec ID/Info                            : UTF-8 Plain Text
  54. Duration                                 : 1 h 49 min
  55. Bit rate                                 : 29 b/s
  56. Count of elements                        : 900
  57. Stream size                              : 23.9 KiB (0%)
  58. Language                                 : English
  59. Default                                  : Yes
  60. Forced                                   : No
  61. Text #2
  62. ID                                       : 3
  63. Format                                   : UTF-8
  64. Codec ID                                 : S_TEXT/UTF8
  65. Codec ID/Info                            : UTF-8 Plain Text
  66. Duration                                 : 1 h 49 min
  67. Bit rate                                 : 32 b/s
  68. Count of elements                        : 900
  69. Stream size                              : 25.9 KiB (0%)
  70. Language                                 : Spanish
  71. Default                                  : No
  72. Forced                                   : No
  73. Text #3
  74. ID                                       : 4
  75. Format                                   : UTF-8
  76. Codec ID                                 : S_TEXT/UTF8
  77. Codec ID/Info                            : UTF-8 Plain Text
  78. Duration                                 : 1 h 49 min
  79. Bit rate                                 : 30 b/s
  80. Count of elements                        : 1047
  81. Stream size                              : 24.3 KiB (0%)
  82. Language                                 : Portuguese
  83. Default                                  : No
  84. Forced                                   : No
  85. Text #4
  86. ID                                       : 5
  87. Format                                   : UTF-8
  88. Codec ID                                 : S_TEXT/UTF8
  89. Codec ID/Info                            : UTF-8 Plain Text
  90. Duration                                 : 1 h 49 min
  91. Bit rate                                 : 32 b/s
  92. Count of elements                        : 900
  93. Stream size                              : 26.4 KiB (0%)
  94. Language                                 : Romanian
  95. Default                                  : No
  96. Forced                                   : No
  97. Text #5
  98. ID                                       : 6
  99. Format                                   : UTF-8
  100. Codec ID                                 : S_TEXT/UTF8
  101. Codec ID/Info                            : UTF-8 Plain Text
  102. Duration                                 : 1 h 49 min
  103. Bit rate                                 : 32 b/s
  104. Count of elements                        : 900
  105. Stream size                              : 26.4 KiB (0%)
  106. Language                                 : Turkish
  107. Default                                  : No
  108. Forced                                   : No
  109. Text #6
  110. ID                                       : 7
  111. Format                                   : UTF-8
  112. Codec ID                                 : S_TEXT/UTF8
  113. Codec ID/Info                            : UTF-8 Plain Text
  114. Duration                                 : 1 h 50 min
  115. Bit rate                                 : 56 b/s
  116. Count of elements                        : 903
  117. Stream size                              : 45.6 KiB (0%)
  118. Language                                 : Greek
  119. Default                                  : No
  120. Forced                                   : No
复制代码






                                       
                                       

                                       
                                       
                                       




回复

使用道具 举报

懒得打字嘛,点击右侧快捷回复 【右侧内容,后台自定义】
您需要登录后才可以回帖 登录 | 立即加入

本版积分规则

Archiver|小黑屋| 蓝光电影网 |网站地图

Copyright © 2021 Comsenz Inc. Powered by 蓝光电影网

蓝光电影网

本站内容由用户自主分享和转载自互联网,转载目的在于传递更多信息,并不代表本网赞同其观点和对其真实性负责。

如有侵权、违反国家法律政策行为,请联系我们,我们会第一时间及时清除和处理!

举报反馈邮箱:[email protected]

快速回复 返回顶部 返回列表