找回密码

蓝光电影网

查看: 17|回复: 0

[剧情] 我们是兄弟 We.Are.Brothers.2014.KOREAN.1080p.NF.WEBRip.DDP5.1.x264-tG1R0 3.05GB

[复制链接]
蓝光币
519
发表于 2021-8-20 01:15:52 | 显示全部楼层 |阅读模式


◎译  名 我们是兄弟/We Are Brothers/他不囧,他是我兄弟(台)
◎片  名 ??? ?????
◎年  代 2014
◎产  地 韩国
◎类  别 剧情 / 笑剧
◎语  言 韩语
◎上映日期 2014-10-23
◎IMDb评分  6.3/10 from 124 users
◎IMDb链接  https://www.imdb.com/title/tt4314832/
◎豆瓣评分 6.5/10 from 864 users
◎豆瓣链接 https://movie.douban.com/subject/25824753/
◎片  长 102分钟
◎导  演 张镇 Jang Jin
◎编  剧 裴世英 Se-yeong Bae / 张镇 Jang Jin
◎主  演 赵震雄 Cho Jin-woong
       金成钧 Sung-Kyun Kim
       金英爱 Yeong-ae Kim
       尹贞伊 Jin-Yi Yoon
       金元海 Won-hae Kim
       李孝制 Hyojae Lee
       赵福来 Bok-rae Jo
       裴成一 Seong-il Bae
       曹善默 Sun-mook Jo
◎标  签 韩国 | 笑剧 | 亲情 | 韩国电影 | 温情 | 2014 | 搞笑 | 剧情
◎简  介


  韩国演员赵镇雄和金成钧此次在《我们是兄弟》中饰演一对别离30年之久的兄弟,说话、生活习惯、思维方式、宗教信仰都完全分歧的两人,可是刚相聚30分钟就把老妈给弄丢了,兄弟俩一路踏上寻母之路,有各类冲突和搞笑的工作发生。
  1. Video
  2. ID                                       : 1
  3. Format                                   : AVC
  4. Format/Info                              : Advanced Video Codec
  5. Format profile                           : [email protected]
  6. Format settings                          : CABAC / 3 Ref Frames
  7. Format settings, CABAC                   : Yes
  8. Format settings, Reference frames        : 3 frames
  9. Codec ID                                 : V_MPEG4/ISO/AVC
  10. Duration                                 : 1 h 42 min
  11. Bit rate mode                            : Variable
  12. Bit rate                                 : 3 650 kb/s
  13. Maximum bit rate                         : 5 475 kb/s
  14. Width                                    : 1 920 pixels
  15. Height                                   : 1 080 pixels
  16. Display aspect ratio                     : 16:9
  17. Frame rate mode                          : Constant
  18. Frame rate                               : 23.976 (24000/1001/189150) FPS
  19. Color space                              : YUV
  20. Chroma subsampling                       : 4:2:0
  21. Bit depth                                : 8 bits
  22. Scan type                                : Progressive
  23. Bits/(Pixel*Frame)                       : 0.073
  24. Stream size                              : 2.60 GiB (85%)
  25. Title                                    : Urineun Hyeongjeimnida (2014) [Netflix] - tt4314832
  26. Writing library                          : x264 core 148 r2715 7e75228
  27. Encoding settings                        : cabac=1 / ref=3 / deblock=1:0:0 / analyse=0x1:0x111 / me=umh / subme=10 / psy=1 / psy_rd=1.00:0.00 / mixed_ref=1 / me_range=24 / chroma_me=1 / trellis=2 / 8x8dct=0 / cqm=0 / deadzone=21,11 / fast_pskip=1 / chroma_qp_offset=-2 / threads=8 / lookahead_threads=1 / sliced_threads=0 / nr=0 / decimate=1 / interlaced=0 / bluray_compat=0 / stitchable=1 / constrained_intra=0 / bframes=2 / b_pyramid=0 / b_adapt=2 / b_bias=0 / direct=3 / weightb=1 / open_gop=0 / weightp=2 / keyint=48 / keyint_min=25 / scenecut=0 / intra_refresh=0 / rc_lookahead=48 / rc=2pass / mbtree=1 / bitrate=3650 / ratetol=1.0 / qcomp=0.50 / qpmin=6 / qpmax=51 / qpstep=4 / cplxblur=20.0 / qblur=0.5 / vbv_maxrate=5475 / vbv_bufsize=7300 / nal_hrd=vbr / filler=0 / ip_ratio=1.40 / aq=1:1.00
  28. Language                                 : Korean
  29. Default                                  : Yes
  30. Forced                                   : No
  31. Audio
  32. ID                                       : 2
  33. Format                                   : E-AC-3
  34. Format/Info                              : Enhanced AC-3
  35. Commercial name                          : Dolby Digital Plus
  36. Codec ID                                 : A_EAC3
  37. Duration                                 : 1 h 42 min
  38. Bit rate mode                            : Constant
  39. Bit rate                                 : 640 kb/s
  40. Channel(s)                               : 6 channels
  41. Channel layout                           : L R C LFE Ls Rs
  42. Sampling rate                            : 48.0 kHz
  43. Frame rate                               : 31.250 FPS (1536 SPF)
  44. Compression mode                         : Lossy
  45. Stream size                              : 467 MiB (15%)
  46. Language                                 : Korean
  47. Service kind                             : Complete Main
  48. Default                                  : Yes
  49. Forced                                   : No
  50. Text #1
  51. ID                                       : 3
  52. Format                                   : UTF-8
  53. Codec ID                                 : S_TEXT/UTF8
  54. Codec ID/Info                            : UTF-8 Plain Text
  55. Duration                                 : 1 h 40 min
  56. Bit rate                                 : 51 b/s
  57. Count of elements                        : 1182
  58. Stream size                              : 37.9 KiB (0%)
  59. Language                                 : English
  60. Default                                  : Yes
  61. Forced                                   : Yes
  62. Text #2
  63. ID                                       : 4
  64. Format                                   : UTF-8
  65. Codec ID                                 : S_TEXT/UTF8
  66. Codec ID/Info                            : UTF-8 Plain Text
  67. Duration                                 : 1 h 29 min
  68. Bit rate                                 : 2 b/s
  69. Count of elements                        : 58
  70. Stream size                              : 1.47 KiB (0%)
  71. Title                                    : FORCED
  72. Language                                 : Korean
  73. Default                                  : No
  74. Forced                                   : No
  75. Text #3
  76. ID                                       : 5
  77. Format                                   : UTF-8
  78. Codec ID                                 : S_TEXT/UTF8
  79. Codec ID/Info                            : UTF-8 Plain Text
  80. Duration                                 : 1 h 40 min
  81. Bit rate                                 : 83 b/s
  82. Count of elements                        : 1734
  83. Stream size                              : 61.7 KiB (0%)
  84. Title                                    : SDH
  85. Language                                 : Korean
  86. Default                                  : No
  87. Forced                                   : No
复制代码






                                       
                                       

                                       
                                       
                                       




回复

使用道具 举报

懒得打字嘛,点击右侧快捷回复 【右侧内容,后台自定义】
您需要登录后才可以回帖 登录 | 立即加入

本版积分规则

Archiver|小黑屋| 蓝光电影网 |网站地图

Copyright © 2021 Comsenz Inc. Powered by 蓝光电影网

蓝光电影网

本站内容由用户自主分享和转载自互联网,转载目的在于传递更多信息,并不代表本网赞同其观点和对其真实性负责。

如有侵权、违反国家法律政策行为,请联系我们,我们会第一时间及时清除和处理!

举报反馈邮箱:[email protected]

快速回复 返回顶部 返回列表