找回密码

蓝光电影网

查看: 24|回复: 0

[剧情] 格洛丽亚在路上 The.Glorias.2020.1080p.WEBRip.x264-RARBG 2.80GB

[复制链接]
蓝光币
515
发表于 2021-8-20 01:16:19 | 显示全部楼层 |阅读模式


◎译  名 格洛丽亚在路上/My Life on the Road/The Glorias: A Life on the Road/我的人生门路/我的生活在路上/我的行进人生/格洛丽亚
◎片  名 The Glorias
◎年  代 2020
◎产  地 美国
◎类  别 剧情 / 列传 / 历史
◎语  言 英语
◎上映日期 2020-01-26(圣丹斯电影节) / 2020-09-30(美国)
◎IMDb链接  https://www.imdb.com/title/tt7435316/
◎豆瓣评分 /10 from 0 users
◎豆瓣链接 https://movie.douban.com/subject/27156541/
◎片  长 139分钟
◎导  演 朱丽·泰莫 Julie Taymor
◎编  剧 朱丽·泰莫 Julie Taymor / 格洛丽亚·斯泰纳姆 Gloria Steinem
◎主  演 朱丽安·摩尔 Julianne Moore
       艾丽西亚·维坎德 Alicia Vikander
       加奈儿·梦奈 Janelle Monáe
       贝特·米德勒 Bette Midler
       蒂莫西·赫顿 Timothy Hutton
       露露·威尔逊 Lulu Wilson
       摩西·布林斯·普兰提 Moses Brings Plenty
       洛莱妮·图桑特 Lorraine Toussaint
       赖恩·基拉·阿姆斯特朗 Ryan Kiera Armstrong
       大卫·莫拉蒂 David Moretti
       伊内徳·格兰汉姆 Enid Graham
       维克多·斯勒扎克 Victor Slezak
       汤姆·诺维茨基 Tom Nowicki
       尼古拉·瓦尔伯特 Joan McMurtrey
       玛德赫·杰佛里 Madhur Jaffrey
       迈克尔·洛瑞 Michael Lowry
       Kimiko Gelman
       林恩·阿什 Lynne Ashe
       查尔斯·格林 Charles Green
       杰伊·胡古雷 Jay Huguley
       安杰拉·雷卢西奥 Angela Relucio
       凯莉·戴维斯 Kelley Davis
       阿里亚当娜·约瑟夫 Ariadne Joseph
       艾喜丽·D·梅利特 Ashley D. Merritt
       斯凯拉·丹尼 Skylar Denney
◎标  签 女性 | 列传 | 朱丽安·摩尔 | 美国 | 历史 | 2020 | 剧情 | 美国电影
◎简  介


  按照斯泰纳姆同名自传改编,将聚焦她若何从一位普通记者成为美国女权活动的先驱。
  1. Video
  2. ID                                       : 1
  3. Format                                   : AVC
  4. Format/Info                              : Advanced Video Codec
  5. Format profile                           : [email protected]
  6. Format settings                          : CABAC / 4 Ref Frames
  7. Format settings, CABAC                   : Yes
  8. Format settings, Reference frames        : 4 frames
  9. Codec ID                                 : avc1
  10. Codec ID/Info                            : Advanced Video Coding
  11. Duration                                 : 2 h 27 min
  12. Bit rate                                 : 2 500 kb/s
  13. Width                                    : 1 920 pixels
  14. Height                                   : 1 040 pixels
  15. Display aspect ratio                     : 1.85:1
  16. Frame rate mode                          : Constant
  17. Frame rate                               : 23.976 (23976/1000/189150) FPS
  18. Color space                              : YUV
  19. Chroma subsampling                       : 4:2:0
  20. Bit depth                                : 8 bits
  21. Scan type                                : Progressive
  22. Bits/(Pixel*Frame)                       : 0.052
  23. Stream size                              : 2.57 GiB (92%)
  24. Writing library                          : x264 core 152 r2851M ba24899
  25. Encoding settings                        : cabac=1 / ref=4 / deblock=1:-1:-1 / analyse=0x3:0x113 / me=umh / subme=9 / psy=1 / psy_rd=1.00:0.15 / mixed_ref=1 / me_range=24 / chroma_me=1 / trellis=2 / 8x8dct=1 / cqm=0 / deadzone=21,11 / fast_pskip=1 / chroma_qp_offset=-3 / threads=16 / lookahead_threads=4 / sliced_threads=0 / nr=0 / decimate=1 / interlaced=0 / bluray_compat=0 / constrained_intra=0 / bframes=3 / b_pyramid=2 / b_adapt=2 / b_bias=0 / direct=3 / weightb=1 / open_gop=0 / weightp=2 / keyint=250 / keyint_min=25 / scenecut=40 / intra_refresh=0 / rc_lookahead=50 / rc=2pass / mbtree=1 / bitrate=2500 / ratetol=1.0 / qcomp=0.60 / qpmin=0 / qpmax=69 / qpstep=4 / cplxblur=20.0 / qblur=0.5 / vbv_maxrate=31250 / vbv_bufsize=31250 / nal_hrd=none / filler=0 / ip_ratio=1.40 / aq=3:1.00
  26. Encoded date                             : UTC 2020-09-30 09:27:28
  27. Tagged date                              : UTC 2020-09-30 09:27:28
  28. Codec configuration box                  : avcC
  29. Audio
  30. ID                                       : 2
  31. Format                                   : AAC LC
  32. Format/Info                              : Advanced Audio Codec Low Complexity
  33. Codec ID                                 : mp4a-40-2
  34. Duration                                 : 2 h 27 min
  35. Duration_LastFrame                       : -11 ms
  36. Bit rate mode                            : Constant
  37. Bit rate                                 : 224 kb/s
  38. Channel(s)                               : 6 channels
  39. Channel layout                           : C L R Ls Rs LFE
  40. Sampling rate                            : 48.0 kHz
  41. Frame rate                               : 46.875 FPS (1024 SPF)
  42. Compression mode                         : Lossy
  43. Stream size                              : 236 MiB (8%)
  44. Language                                 : English
  45. Default                                  : Yes
  46. Alternate group                          : 1
  47. Encoded date                             : UTC 2020-09-30 09:27:28
  48. Tagged date                              : UTC 2020-09-30 09:27:28
复制代码






                                       
                                       

                                       
                                       
                                       




回复

使用道具 举报

懒得打字嘛,点击右侧快捷回复 【右侧内容,后台自定义】
您需要登录后才可以回帖 登录 | 立即加入

本版积分规则

Archiver|小黑屋| 蓝光电影网 |网站地图

Copyright © 2021 Comsenz Inc. Powered by 蓝光电影网

蓝光电影网

本站内容由用户自主分享和转载自互联网,转载目的在于传递更多信息,并不代表本网赞同其观点和对其真实性负责。

如有侵权、违反国家法律政策行为,请联系我们,我们会第一时间及时清除和处理!

举报反馈邮箱:[email protected]

快速回复 返回顶部 返回列表