找回密码

蓝光电影网

查看: 28|回复: 0

[剧情] 即日启程 Set.Off.2008.CHINESE.1080p.NF.WEBRip.DDP2.0.x264-tG1R0 5.12GB

[复制链接]
蓝光币
515
发表于 2021-8-20 01:16:31 | 显示全部楼层 |阅读模式


◎译  名 Set Off
◎片  名 本日出发
◎年  代 2008
◎产  地 中国大陆
◎类  别 剧情 / 笑剧
◎语  言 汉语普通话
◎上映日期 2008-09-30
◎IMDb评分  6.6/10 from 217 users
◎IMDb链接  https://www.imdb.com/title/tt1307008/
◎豆瓣评分 7.1/10 from 43775 users
◎豆瓣链接 https://movie.douban.com/subject/3250377/
◎片  长 96分钟
◎导  演 刘江 Jiang Liu
◎编  剧 查慕春 Muchun Zha / 王黎 Li Wang
◎主  演 范伟 Wei Fan
       居文沛 Wenpei Ju
       刘桦 Hua Liu
       王千源 Qianyuan Wang
       尹媗 Xuan Yin
       任正斌 Zheng-bin Ren
       郭晓晓 Xiaoxiao Guo
       王东方 Dongfang Wang
       李耕 Geng Li
◎标  签 笑剧 | 范伟 | 中国电影 | 大陆 | 中国 | 本日出发 | 2008 | 国产
◎简  介


  在塞浦路斯开餐馆的中年汉子老崔(范伟 饰)返国跟妻子办仳离,却发现让自己后院起火的罪魁罪魁是自己的朋友。老崔得知合股人要卖掉塞浦路斯的餐馆,情场失意的老崔只想快点回到塞浦路斯拯救自己的奇迹。不意倒霉的工作并没有完,在老崔前往飞机场的途中,一个醉酒的女孩子小夏(居文沛 饰)忽然拦住了老崔的乘坐的出租车,好心的老崔本想只送小夏回家,没想前面却发生了连续串工作,搞到身无分文、护照失窍,曾至衣不遮体。情急之下,老崔只得和小夏合作,相互帮助,不意一波未平,一波又起,两人历经磨难,曾至还卷入到一场偷盗国宝的诡计当中。在相处的进程中,两人的心里似乎也种下了一颗在渐渐发芽的种子……
  
  该片是“中影团体青年导演电影建造计划”启动的第一部影片。
◎获奖情况
  第16届北京大门生电影节 ?(2009)
  最好童贞作奖 刘江
  最好电视电影男演员 范伟
  1. Video
  2. ID                                       : 1
  3. Format                                   : AVC
  4. Format/Info                              : Advanced Video Codec
  5. Format profile                           : [email protected]
  6. Format settings                          : CABAC / 3 Ref Frames
  7. Format settings, CABAC                   : Yes
  8. Format settings, Reference frames        : 3 frames
  9. Codec ID                                 : V_MPEG4/ISO/AVC
  10. Duration                                 : 1 h 36 min
  11. Bit rate mode                            : Variable
  12. Bit rate                                 : 7 500 kb/s
  13. Maximum bit rate                         : 11.2 Mb/s
  14. Width                                    : 1 920 pixels
  15. Height                                   : 1 080 pixels
  16. Display aspect ratio                     : 16:9
  17. Frame rate mode                          : Constant
  18. Frame rate                               : 24.000 FPS
  19. Color space                              : YUV
  20. Chroma subsampling                       : 4:2:0
  21. Bit depth                                : 8 bits
  22. Scan type                                : Progressive
  23. Bits/(Pixel*Frame)                       : 0.151
  24. Stream size                              : 5.03 GiB (98%)
  25. Title                                    : Ji ri qi cheng (2008) [Netflix] - tt1307008
  26. Writing library                          : x264 core 148 r2715 7e75228
  27. Encoding settings                        : cabac=1 / ref=3 / deblock=1:0:0 / analyse=0x1:0x111 / me=umh / subme=10 / psy=1 / psy_rd=1.00:0.00 / mixed_ref=1 / me_range=24 / chroma_me=1 / trellis=2 / 8x8dct=0 / cqm=0 / deadzone=21,11 / fast_pskip=1 / chroma_qp_offset=-2 / threads=8 / lookahead_threads=1 / sliced_threads=0 / nr=0 / decimate=1 / interlaced=0 / bluray_compat=0 / stitchable=1 / constrained_intra=0 / bframes=2 / b_pyramid=0 / b_adapt=2 / b_bias=0 / direct=3 / weightb=1 / open_gop=0 / weightp=2 / keyint=48 / keyint_min=25 / scenecut=0 / intra_refresh=0 / rc_lookahead=48 / rc=2pass / mbtree=1 / bitrate=7500 / ratetol=1.0 / qcomp=0.50 / qpmin=6 / qpmax=51 / qpstep=4 / cplxblur=20.0 / qblur=0.5 / vbv_maxrate=11250 / vbv_bufsize=15000 / nal_hrd=vbr / filler=0 / ip_ratio=1.40 / aq=1:1.00
  28. Language                                 : Chinese
  29. Default                                  : Yes
  30. Forced                                   : No
  31. Audio
  32. ID                                       : 2
  33. Format                                   : E-AC-3
  34. Format/Info                              : Enhanced AC-3
  35. Commercial name                          : Dolby Digital Plus
  36. Codec ID                                 : A_EAC3
  37. Duration                                 : 1 h 36 min
  38. Bit rate mode                            : Constant
  39. Bit rate                                 : 128 kb/s
  40. Channel(s)                               : 2 channels
  41. Channel layout                           : L R
  42. Sampling rate                            : 48.0 kHz
  43. Frame rate                               : 31.250 FPS (1536 SPF)
  44. Compression mode                         : Lossy
  45. Stream size                              : 88.0 MiB (2%)
  46. Title                                    : Mandarin
  47. Language                                 : Chinese
  48. Service kind                             : Complete Main
  49. Default                                  : Yes
  50. Forced                                   : No
  51. Text #1
  52. ID                                       : 3
  53. Format                                   : UTF-8
  54. Codec ID                                 : S_TEXT/UTF8
  55. Codec ID/Info                            : UTF-8 Plain Text
  56. Duration                                 : 1 h 34 min
  57. Bit rate                                 : 45 b/s
  58. Count of elements                        : 1198
  59. Stream size                              : 31.5 KiB (0%)
  60. Language                                 : German
  61. Default                                  : No
  62. Forced                                   : No
  63. Text #2
  64. ID                                       : 4
  65. Format                                   : UTF-8
  66. Codec ID                                 : S_TEXT/UTF8
  67. Codec ID/Info                            : UTF-8 Plain Text
  68. Duration                                 : 1 h 32 min
  69. Bit rate                                 : 49 b/s
  70. Count of elements                        : 1244
  71. Stream size                              : 33.2 KiB (0%)
  72. Language                                 : English
  73. Default                                  : No
  74. Forced                                   : No
  75. Text #3
  76. ID                                       : 5
  77. Format                                   : UTF-8
  78. Codec ID                                 : S_TEXT/UTF8
  79. Codec ID/Info                            : UTF-8 Plain Text
  80. Duration                                 : 1 h 34 min
  81. Bit rate                                 : 44 b/s
  82. Count of elements                        : 1246
  83. Stream size                              : 31.0 KiB (0%)
  84. Language                                 : Spanish
  85. Default                                  : No
  86. Forced                                   : No
  87. Text #4
  88. ID                                       : 6
  89. Format                                   : UTF-8
  90. Codec ID                                 : S_TEXT/UTF8
  91. Codec ID/Info                            : UTF-8 Plain Text
  92. Duration                                 : 1 h 34 min
  93. Bit rate                                 : 45 b/s
  94. Count of elements                        : 1232
  95. Stream size                              : 31.9 KiB (0%)
  96. Language                                 : Indonesian
  97. Default                                  : No
  98. Forced                                   : No
  99. Text #5
  100. ID                                       : 7
  101. Format                                   : UTF-8
  102. Codec ID                                 : S_TEXT/UTF8
  103. Codec ID/Info                            : UTF-8 Plain Text
  104. Duration                                 : 1 h 34 min
  105. Bit rate                                 : 42 b/s
  106. Count of elements                        : 1177
  107. Stream size                              : 29.2 KiB (0%)
  108. Language                                 : Japanese
  109. Default                                  : No
  110. Forced                                   : No
  111. Text #6
  112. ID                                       : 8
  113. Format                                   : UTF-8
  114. Codec ID                                 : S_TEXT/UTF8
  115. Codec ID/Info                            : UTF-8 Plain Text
  116. Duration                                 : 1 h 34 min
  117. Bit rate                                 : 51 b/s
  118. Count of elements                        : 1264
  119. Stream size                              : 36.0 KiB (0%)
  120. Language                                 : Korean
  121. Default                                  : No
  122. Forced                                   : No
  123. Text #7
  124. ID                                       : 9
  125. Format                                   : UTF-8
  126. Codec ID                                 : S_TEXT/UTF8
  127. Codec ID/Info                            : UTF-8 Plain Text
  128. Duration                                 : 1 h 34 min
  129. Bit rate                                 : 46 b/s
  130. Count of elements                        : 1202
  131. Stream size                              : 32.0 KiB (0%)
  132. Title                                    : Brazilian Portuguese
  133. Language                                 : Portuguese
  134. Default                                  : No
  135. Forced                                   : No
  136. Text #8
  137. ID                                       : 10
  138. Format                                   : UTF-8
  139. Codec ID                                 : S_TEXT/UTF8
  140. Codec ID/Info                            : UTF-8 Plain Text
  141. Duration                                 : 1 h 32 min
  142. Bit rate                                 : 53 b/s
  143. Count of elements                        : 1244
  144. Stream size                              : 36.2 KiB (0%)
  145. Language                                 : Vietnamese
  146. Default                                  : No
  147. Forced                                   : No
  148. Text #9
  149. ID                                       : 11
  150. Format                                   : UTF-8
  151. Codec ID                                 : S_TEXT/UTF8
  152. Codec ID/Info                            : UTF-8 Plain Text
  153. Duration                                 : 1 h 34 min
  154. Bit rate                                 : 42 b/s
  155. Count of elements                        : 1246
  156. Stream size                              : 29.3 KiB (0%)
  157. Title                                    : Simplified Chinese
  158. Language                                 : Chinese
  159. Default                                  : No
  160. Forced                                   : No
  161. Text #10
  162. ID                                       : 12
  163. Format                                   : UTF-8
  164. Codec ID                                 : S_TEXT/UTF8
  165. Codec ID/Info                            : UTF-8 Plain Text
  166. Duration                                 : 1 h 32 min
  167. Bit rate                                 : 45 b/s
  168. Count of elements                        : 1642
  169. Stream size                              : 30.8 KiB (0%)
  170. Title                                    : Traditional Chinese
  171. Language                                 : Chinese
  172. Default                                  : No
  173. Forced                                   : No
复制代码





                                       
                                       

                                       
                                       
                                       




回复

使用道具 举报

懒得打字嘛,点击右侧快捷回复 【右侧内容,后台自定义】
您需要登录后才可以回帖 登录 | 立即加入

本版积分规则

Archiver|小黑屋| 蓝光电影网 |网站地图

Copyright © 2021 Comsenz Inc. Powered by 蓝光电影网

蓝光电影网

本站内容由用户自主分享和转载自互联网,转载目的在于传递更多信息,并不代表本网赞同其观点和对其真实性负责。

如有侵权、违反国家法律政策行为,请联系我们,我们会第一时间及时清除和处理!

举报反馈邮箱:[email protected]

快速回复 返回顶部 返回列表