找回密码

蓝光电影网

查看: 28|回复: 0

[剧情] 足够老/女孩想玩的开心 Old.Enough.1984.1080p.AMZN.WEBRip.DDP2.0.x264-FIZ 9.47GB

[复制链接]
蓝光币
515
发表于 2021-8-20 01:16:49 | 显示全部楼层 |阅读模式


◎译  名 充足老/女孩想玩的高兴
◎片  名 Old Enough
◎年  代 1984
◎产  地 美国
◎类  别 剧情
◎语  言 英语
◎上映日期 1984
◎IMDb评分  6.5/10 from 578 users
◎IMDb链接  https://www.imdb.com/title/tt0087837/
◎豆瓣评分 /10 from 0 users
◎豆瓣链接 https://movie.douban.com/subject/5049211/
◎片  长 92 分钟
◎导  演 玛莉莎·西尔弗 Marisa Silver
◎主  演 Sarah Boyd
       Rainbow Harvest
       尼尔·巴里 Neill Barry
       艾莉莎·米兰诺 Alyssa Milano
       丹尼·爱罗 Danny Aiello
       Susan Kingsley
       罗珊妮·哈特 Roxanne Hart
       弗兰·布里尔 Fran Brill
       杰瑞·巴曼 Gerry Bamman
       安妮·皮托尼亚克 Anne Pitoniak
       特里斯蒂尼·斯凯勒 Tristine Skyler
       珍妮弗·布兰克 Jennifer Blanc-Biehn
       约什·汉密尔顿 Josh Hamilton
◎标  签 美国 | 1980s | 长大 | 青春 | 美国电影 | 剧情 | 美國 | 没法下载种子里的文件
◎简  介


  Twelve-year-old, well-bred Lonnie meets the impudent Karen on the street. They spend some time together and Karen teaches Lonnie some of her favorite pastimes, like make-up, shop-lifting, skipping school and lying to her parents about it, but confessing to the priest later. But Karen also learns some honesty from Lonnie. A film about social differences and growing up.
  1. Video
  2. ID                                       : 1
  3. Format                                   : AVC
  4. Format/Info                              : Advanced Video Codec
  5. Format profile                           : [email protected]
  6. Format settings                          : CABAC / 4 Ref Frames
  7. Format settings, CABAC                   : Yes
  8. Format settings, Reference frames        : 4 frames
  9. Codec ID                                 : V_MPEG4/ISO/AVC
  10. Duration                                 : 1 h 31 min
  11. Bit rate                                 : 14.3 Mb/s
  12. Width                                    : 1 920 pixels
  13. Height                                   : 1 080 pixels
  14. Display aspect ratio                     : 16:9
  15. Frame rate mode                          : Constant
  16. Frame rate                               : 23.976 (24000/1001/189150) FPS
  17. Color space                              : YUV
  18. Chroma subsampling                       : 4:2:0
  19. Bit depth                                : 8 bits
  20. Scan type                                : Progressive
  21. Bits/(Pixel*Frame)                       : 0.287
  22. Stream size                              : 9.14 GiB (96%)
  23. Default                                  : Yes
  24. Forced                                   : No
  25. Color range                              : Limited
  26. Color primaries                          : BT.709
  27. Transfer characteristics                 : BT.709
  28. Matrix coefficients                      : BT.709
  29. Audio
  30. ID                                       : 2
  31. Format                                   : E-AC-3
  32. Format/Info                              : Enhanced AC-3
  33. Commercial name                          : Dolby Digital Plus
  34. Codec ID                                 : A_EAC3
  35. Duration                                 : 1 h 31 min
  36. Bit rate mode                            : Constant
  37. Bit rate                                 : 224 kb/s
  38. Channel(s)                               : 2 channels
  39. Channel layout                           : L R
  40. Sampling rate                            : 48.0 kHz
  41. Frame rate                               : 31.250 FPS (1536 SPF)
  42. Compression mode                         : Lossy
  43. Delay relative to video                  : -83 ms
  44. Stream size                              : 147 MiB (2%)
  45. Language                                 : English
  46. Service kind                             : Complete Main
  47. Default                                  : Yes
  48. Forced                                   : No
  49. Text
  50. ID                                       : 3
  51. Format                                   : UTF-8
  52. Codec ID                                 : S_TEXT/UTF8
  53. Codec ID/Info                            : UTF-8 Plain Text
  54. Language                                 : English
  55. Default                                  : No
  56. Forced                                   : No
  57. Menu
  58. 00:00:00.000                             : :Chapter 01
  59. 00:06:45.572                             : :Chapter 02
  60. 00:13:12.709                             : :Chapter 03
  61. 00:22:53.581                             : :Chapter 04
  62. 00:31:18.752                             : :Chapter 05
  63. 00:39:27.282                             : :Chapter 06
  64. 00:51:57.698                             : :Chapter 07
  65. 01:00:06.228                             : :Chapter 08
  66. 01:08:47.832                             : :Chapter 09
  67. 01:13:21.105                             : :Chapter 10
  68. 01:21:07.404                             : :Chapter 11
  69. 01:27:03.635                             : :Chapter 12
复制代码






                                       
                                       

                                       
                                       
                                       




回复

使用道具 举报

懒得打字嘛,点击右侧快捷回复 【右侧内容,后台自定义】
您需要登录后才可以回帖 登录 | 立即加入

本版积分规则

Archiver|小黑屋| 蓝光电影网 |网站地图

Copyright © 2021 Comsenz Inc. Powered by 蓝光电影网

蓝光电影网

本站内容由用户自主分享和转载自互联网,转载目的在于传递更多信息,并不代表本网赞同其观点和对其真实性负责。

如有侵权、违反国家法律政策行为,请联系我们,我们会第一时间及时清除和处理!

举报反馈邮箱:[email protected]

快速回复 返回顶部 返回列表