找回密码

蓝光电影网

查看: 39|回复: 0

[剧情] 鸟类变形记 The.Metamorphosis.of.Birds.2020.PORTUGUESE.ENSUBBED.1080p.WEBRip.AAC2.0.x264-NOGRP 3.55GB

[复制链接]
蓝光币
515
发表于 2021-8-20 01:17:10 | 显示全部楼层 |阅读模式


◎译  名 鸟类变形记/The Metamorphosis of Birds/鸟是海与树的孩子(台)
◎片  名 A metamorfose dos pássaros
◎年  代 2020
◎产  地 葡萄牙
◎类  别 剧情 / 记载片 / 列传
◎语  言 葡萄牙语
◎上映日期 2020-02-28(柏林电影节) / 2020-05-28(葡萄牙)
◎IMDb评分  7.7/10 from 88 users
◎IMDb链接  https://www.imdb.com/title/tt11625100/
◎豆瓣评分 7.7/10 from 447 users
◎豆瓣链接 https://movie.douban.com/subject/34952486/
◎片  长 100分钟
◎导  演 卡塔里娜·瓦斯康塞洛斯 Catarina Vasconcelos
◎编  剧 卡塔里娜·瓦斯康塞洛斯 Catarina Vasconcelos
◎主  演 卡塔里娜·瓦斯康塞洛斯 Catarina Vasconcelos
       Pedro Fernandes Duarte
◎标  签 葡萄牙 | 记载片 | 2020 | 柏林电影节 | 葡萄牙电影 | 2020s | 剧情 | 电影
◎简  介


  汉子如海,远飏漂浪;女人是树,隐蔽故里。这是一则反溯家属记忆的私密创作,从最初两人的深情往答信简,顺此而成的生命诞造,以及厥后伴怀自然、温柔顾问的哺育后代。在女人温柔如巨树分枝的顾问之下,孩子如鸟,进修翱翔,体味那天穹万物。但在巨树倒下的一刻,雏鸟被迫变形长大,今后在冗长失亲的光阴里,驰念嫡亲、凭悼失落的自己。
  
  以印象派画风为主干,佐以16mm 胶卷的有机颗粒影象,新锐导演瓦斯康丝勒借着家属物件、亲录原声,与戏剧式的重建表演,爬梳家属世伯辈几尽失落的记忆。她约请家人亲身介入表演,对应分歧人声的旁白,以音分别手营建出想像空间,让全片在深入幽微的生命寻思下,具有轻盈的活动感,组成一出构图如画、探讨永久的喧哗疗愈之作。
◎获奖情况
  第70届柏林国际电影节 ?(2020)
  碰见单元最好影片(提名) 卡塔里娜·瓦斯康塞洛斯
  
  第68届圣塞巴斯蒂安国际电影节 ?(2020)
  开放电影大奖 卡塔里娜·瓦斯康塞洛斯
  
  第22届台北电影节 ?(2020)
  国际新导演比赛评审团出格奖 卡塔里娜·瓦斯康塞洛斯
  国际新导演比赛(提名) 卡塔里娜·瓦斯康塞洛斯
  1. Video
  2. ID                                       : 1
  3. Format                                   : AVC
  4. Format/Info                              : Advanced Video Codec
  5. Format profile                           : [email protected]
  6. Format settings                          : CABAC / 5 Ref Frames
  7. Format settings, CABAC                   : Yes
  8. Format settings, Reference frames        : 5 frames
  9. Codec ID                                 : V_MPEG4/ISO/AVC
  10. Duration                                 : 1 h 41 min
  11. Bit rate                                 : 4 763 kb/s
  12. Width                                    : 1 442 pixels
  13. Height                                   : 1 080 pixels
  14. Display aspect ratio                     : 4:3
  15. Frame rate mode                          : Constant
  16. Frame rate                               : 25.000 FPS
  17. Color space                              : YUV
  18. Chroma subsampling                       : 4:2:0
  19. Bit depth                                : 8 bits
  20. Scan type                                : Progressive
  21. Bits/(Pixel*Frame)                       : 0.122
  22. Stream size                              : 3.37 GiB (95%)
  23. Writing library                          : x264 core 159 r10 1771b55
  24. Encoding settings                        : cabac=1 / ref=5 / deblock=1:0:0 / analyse=0x3:0x113 / me=hex / subme=8 / psy=1 / psy_rd=1.00:0.00 / mixed_ref=1 / me_range=16 / chroma_me=1 / trellis=2 / 8x8dct=1 / cqm=0 / deadzone=21,11 / fast_pskip=1 / chroma_qp_offset=-2 / threads=34 / lookahead_threads=5 / sliced_threads=0 / nr=0 / decimate=1 / interlaced=0 / bluray_compat=0 / stitchable=1 / constrained_intra=0 / bframes=3 / b_pyramid=2 / b_adapt=2 / b_bias=0 / direct=3 / weightb=1 / open_gop=0 / weightp=2 / keyint=infinite / keyint_min=25 / scenecut=40 / intra_refresh=0 / rc_lookahead=50 / rc=crf / mbtree=1 / crf=20.0 / qcomp=0.60 / qpmin=5 / qpmax=69 / qpstep=4 / vbv_maxrate=5500 / vbv_bufsize=15000 / crf_max=0.0 / nal_hrd=none / filler=0 / ip_ratio=1.40 / aq=1:1.00
  25. Language                                 : Portuguese
  26. Default                                  : Yes
  27. Forced                                   : No
  28. Color range                              : Limited
  29. Color primaries                          : BT.709
  30. Transfer characteristics                 : BT.709
  31. Matrix coefficients                      : BT.709
  32. Audio
  33. ID                                       : 2
  34. Format                                   : AAC LC
  35. Format/Info                              : Advanced Audio Codec Low Complexity
  36. Codec ID                                 : A_AAC-2
  37. Duration                                 : 1 h 41 min
  38. Bit rate                                 : 253 kb/s
  39. Channel(s)                               : 2 channels
  40. Channel layout                           : L R
  41. Sampling rate                            : 48.0 kHz
  42. Frame rate                               : 46.875 FPS (1024 SPF)
  43. Compression mode                         : Lossy
  44. Stream size                              : 183 MiB (5%)
  45. Language                                 : Portuguese
  46. Default                                  : Yes
  47. Forced                                   : No
复制代码





                                       
                                       

                                       
                                       
                                       




回复

使用道具 举报

懒得打字嘛,点击右侧快捷回复 【右侧内容,后台自定义】
您需要登录后才可以回帖 登录 | 立即加入

本版积分规则

Archiver|小黑屋| 蓝光电影网 |网站地图

Copyright © 2021 Comsenz Inc. Powered by 蓝光电影网

蓝光电影网

本站内容由用户自主分享和转载自互联网,转载目的在于传递更多信息,并不代表本网赞同其观点和对其真实性负责。

如有侵权、违反国家法律政策行为,请联系我们,我们会第一时间及时清除和处理!

举报反馈邮箱:[email protected]

快速回复 返回顶部 返回列表