找回密码

蓝光电影网

查看: 27|回复: 0

[剧情] 选举风暴 Spinning.Boris.2003.1080p.WEBRip.x264-RARBG 2.15GB

[复制链接]
蓝光币
511
发表于 2021-8-20 01:17:13 | 显示全部楼层 |阅读模式


◎译  名 选举风暴
◎片  名 Spinning Boris
◎年  代 2003
◎产  地 美国
◎类  别 剧情 / 笑剧
◎语  言 英语
◎上映日期 2003-10-23
◎IMDb评分  6.6/10 from 1021 users
◎IMDb链接  https://www.imdb.com/title/tt0324619/
◎豆瓣评分 /10 from 0 users
◎豆瓣链接 https://movie.douban.com/subject/2159133/
◎片  长 USA: 112 分钟
◎导  演 罗杰·斯波蒂斯伍德 Roger Spottiswoode
◎编  剧 Grace Cary Bickley / Yuri Zeltser
◎主  演 杰夫·高布伦 Jeff Goldblum
       安东尼·拉帕格利亚 Anthony LaPaglia
       列维·施瑞博尔 Liev Schreiber
       爱洛拉·帕特奈克 Ellora Patnaik
       肖娜·麦克唐纳德 Shauna MacDonald
       朱达·卡茨 Judah Katz
       Zoltan Buday
       鲍里斯·李·库尔通格 Boris Lee Krutonog
       杰森·琼斯 Jason Jones
       格里戈里·格拉季 Gregory Hlady
◎标  签 俄罗斯 | 政治 | 寡头 | 笑剧 | 叶利钦 | 顾问 | 选举 | 美国
◎简  介


  1996年头,三名共和党竞选职员奥秘辅佐鲍里斯·叶利钦(Boris Yeltsin)连任。一到莫斯科,他们就发现他的支持率只要6%,而选举还有几个月就要起头了。当迪克·德累斯顿想要回家的时辰,乔治·戈登和乔·舒马特却投票支持留下。首先,他们必须引发他人的留意;他们终究在叶利钦的女儿身上获得了成功。然后是轮询、焦点小组、信息和宣传。虽然叶利钦的人数在增加,但三人都不肯定是谁雇佣了他们,也不肯定叶利钦的盟友能否有分歧于选举成功的计划。当工作变得辣手时,戈顿就会对我们的赌注停止一番诠释:民主和本钱主义必须得胜。
  1. Video
  2. ID                                       : 1
  3. Format                                   : AVC
  4. Format/Info                              : Advanced Video Codec
  5. Format profile                           : [email protected]
  6. Format settings                          : CABAC / 4 Ref Frames
  7. Format settings, CABAC                   : Yes
  8. Format settings, Reference frames        : 4 frames
  9. Codec ID                                 : avc1
  10. Codec ID/Info                            : Advanced Video Coding
  11. Duration                                 : 1 h 53 min
  12. Bit rate                                 : 2 500 kb/s
  13. Width                                    : 1 920 pixels
  14. Height                                   : 1 080 pixels
  15. Display aspect ratio                     : 16:9
  16. Frame rate mode                          : Constant
  17. Frame rate                               : 23.976 (23976/1000/189150) FPS
  18. Color space                              : YUV
  19. Chroma subsampling                       : 4:2:0
  20. Bit depth                                : 8 bits
  21. Scan type                                : Progressive
  22. Bits/(Pixel*Frame)                       : 0.050
  23. Stream size                              : 1.97 GiB (92%)
  24. Writing library                          : x264 core 152 r2851M ba24899
  25. Encoding settings                        : cabac=1 / ref=4 / deblock=1:-1:-1 / analyse=0x3:0x113 / me=umh / subme=9 / psy=1 / psy_rd=1.00:0.15 / mixed_ref=1 / me_range=24 / chroma_me=1 / trellis=2 / 8x8dct=1 / cqm=0 / deadzone=21,11 / fast_pskip=1 / chroma_qp_offset=-3 / threads=16 / lookahead_threads=4 / sliced_threads=0 / nr=0 / decimate=1 / interlaced=0 / bluray_compat=0 / constrained_intra=0 / bframes=3 / b_pyramid=2 / b_adapt=2 / b_bias=0 / direct=3 / weightb=1 / open_gop=0 / weightp=2 / keyint=250 / keyint_min=25 / scenecut=40 / intra_refresh=0 / rc_lookahead=50 / rc=2pass / mbtree=1 / bitrate=2500 / ratetol=1.0 / qcomp=0.60 / qpmin=0 / qpmax=69 / qpstep=4 / cplxblur=20.0 / qblur=0.5 / vbv_maxrate=31250 / vbv_bufsize=31250 / nal_hrd=none / filler=0 / ip_ratio=1.40 / aq=3:1.00
  26. Encoded date                             : UTC 2020-09-29 06:05:06
  27. Tagged date                              : UTC 2020-09-29 06:05:06
  28. Codec configuration box                  : avcC
  29. Audio
  30. ID                                       : 2
  31. Format                                   : AAC LC
  32. Format/Info                              : Advanced Audio Codec Low Complexity
  33. Codec ID                                 : mp4a-40-2
  34. Duration                                 : 1 h 53 min
  35. Duration_LastFrame                       : -11 ms
  36. Bit rate mode                            : Constant
  37. Bit rate                                 : 224 kb/s
  38. Channel(s)                               : 2 channels
  39. Channel layout                           : L R
  40. Sampling rate                            : 48.0 kHz
  41. Frame rate                               : 46.875 FPS (1024 SPF)
  42. Compression mode                         : Lossy
  43. Stream size                              : 181 MiB (8%)
  44. Language                                 : English
  45. Default                                  : Yes
  46. Alternate group                          : 1
  47. Encoded date                             : UTC 2020-09-29 06:05:06
  48. Tagged date                              : UTC 2020-09-29 06:05:06
复制代码






                                       
                                       

                                       
                                       
                                       




回复

使用道具 举报

懒得打字嘛,点击右侧快捷回复 【右侧内容,后台自定义】
您需要登录后才可以回帖 登录 | 立即加入

本版积分规则

Archiver|小黑屋| 蓝光电影网 |网站地图

Copyright © 2021 Comsenz Inc. Powered by 蓝光电影网

蓝光电影网

本站内容由用户自主分享和转载自互联网,转载目的在于传递更多信息,并不代表本网赞同其观点和对其真实性负责。

如有侵权、违反国家法律政策行为,请联系我们,我们会第一时间及时清除和处理!

举报反馈邮箱:[email protected]

快速回复 返回顶部 返回列表