找回密码

蓝光电影网

查看: 30|回复: 0

[剧情] 选举风暴 Spinning.Boris.2003.1080p.AMZN.WEBRip.DDP2.0.x264-NTb 7.89GB

[复制链接]
蓝光币
519
发表于 2021-8-20 01:17:19 | 显示全部楼层 |阅读模式


◎译  名 选举风暴
◎片  名 Spinning Boris
◎年  代 2003
◎产  地 美国
◎类  别 剧情 / 笑剧
◎语  言 英语
◎上映日期 2003-10-23
◎IMDb评分  6.6/10 from 1021 users
◎IMDb链接  https://www.imdb.com/title/tt0324619/
◎豆瓣评分 /10 from 0 users
◎豆瓣链接 https://movie.douban.com/subject/2159133/
◎片  长 USA: 112 分钟
◎导  演 罗杰·斯波蒂斯伍德 Roger Spottiswoode
◎编  剧 Grace Cary Bickley / Yuri Zeltser
◎主  演 杰夫·高布伦 Jeff Goldblum
       安东尼·拉帕格利亚 Anthony LaPaglia
       列维·施瑞博尔 Liev Schreiber
       爱洛拉·帕特奈克 Ellora Patnaik
       肖娜·麦克唐纳德 Shauna MacDonald
       朱达·卡茨 Judah Katz
       Zoltan Buday
       鲍里斯·李·库尔通格 Boris Lee Krutonog
       杰森·琼斯 Jason Jones
       格里戈里·格拉季 Gregory Hlady
◎标  签 俄罗斯 | 政治 | 寡头 | 笑剧 | 叶利钦 | 顾问 | 选举 | 美国
◎简  介


  1996年头,三名共和党竞选职员奥秘辅佐鲍里斯·叶利钦(Boris Yeltsin)连任。一到莫斯科,他们就发现他的支持率只要6%,而选举还有几个月就要起头了。当迪克·德累斯顿想要回家的时辰,乔治·戈登和乔·舒马特却投票支持留下。首先,他们必须引发他人的留意;他们终究在叶利钦的女儿身上获得了成功。然后是轮询、焦点小组、信息和宣传。虽然叶利钦的人数在增加,但三人都不肯定是谁雇佣了他们,也不肯定叶利钦的盟友能否有分歧于选举成功的计划。当工作变得辣手时,戈顿就会对我们的赌注停止一番诠释:民主和本钱主义必须得胜。
  1. Video
  2. ID                                       : 1
  3. Format                                   : AVC
  4. Format/Info                              : Advanced Video Codec
  5. Format profile                           : [email protected]
  6. Format settings                          : CABAC / 4 Ref Frames
  7. Format settings, CABAC                   : Yes
  8. Format settings, Reference frames        : 4 frames
  9. Codec ID                                 : V_MPEG4/ISO/AVC
  10. Duration                                 : 1 h 53 min
  11. Bit rate mode                            : Constant
  12. Bit rate                                 : 10 000 kb/s
  13. Width                                    : 1 920 pixels
  14. Height                                   : 1 080 pixels
  15. Display aspect ratio                     : 16:9
  16. Frame rate mode                          : Constant
  17. Frame rate                               : 23.976 (24000/1001/189150) FPS
  18. Color space                              : YUV
  19. Chroma subsampling                       : 4:2:0
  20. Bit depth                                : 8 bits
  21. Scan type                                : Progressive
  22. Bits/(Pixel*Frame)                       : 0.201
  23. Stream size                              : 7.71 GiB (98%)
  24. Default                                  : Yes
  25. Forced                                   : No
  26. Color range                              : Limited
  27. Color primaries                          : BT.709
  28. Transfer characteristics                 : BT.709
  29. Matrix coefficients                      : BT.709
  30. Audio
  31. ID                                       : 2
  32. Format                                   : E-AC-3
  33. Format/Info                              : Enhanced AC-3
  34. Commercial name                          : Dolby Digital Plus
  35. Codec ID                                 : A_EAC3
  36. Duration                                 : 1 h 53 min
  37. Bit rate mode                            : Constant
  38. Bit rate                                 : 224 kb/s
  39. Channel(s)                               : 2 channels
  40. Channel layout                           : L R
  41. Sampling rate                            : 48.0 kHz
  42. Frame rate                               : 31.250 FPS (1536 SPF)
  43. Compression mode                         : Lossy
  44. Stream size                              : 181 MiB (2%)
  45. Language                                 : English
  46. Service kind                             : Complete Main
  47. Default                                  : Yes
  48. Forced                                   : No
复制代码






                                       
                                       

                                       
                                       
                                       




回复

使用道具 举报

懒得打字嘛,点击右侧快捷回复 【右侧内容,后台自定义】
您需要登录后才可以回帖 登录 | 立即加入

本版积分规则

Archiver|小黑屋| 蓝光电影网 |网站地图

Copyright © 2021 Comsenz Inc. Powered by 蓝光电影网

蓝光电影网

本站内容由用户自主分享和转载自互联网,转载目的在于传递更多信息,并不代表本网赞同其观点和对其真实性负责。

如有侵权、违反国家法律政策行为,请联系我们,我们会第一时间及时清除和处理!

举报反馈邮箱:[email protected]

快速回复 返回顶部 返回列表