找回密码

蓝光电影网

查看: 27|回复: 0

[剧情] 毒爱/亲爱的斯诺 Sno.Babies.2020.1080p.WEB-DL.DD5.1.H264-FGT 3.79GB

[复制链接]
蓝光币
515
发表于 2021-8-20 01:17:24 | 显示全部楼层 |阅读模式


◎译  名 毒爱/亲爱的斯诺
◎片  名 Sno Babies
◎年  代 2020
◎产  地 美国
◎类  别 剧情
◎上映日期 
◎IMDb链接  https://www.imdb.com/title/tt4755910/
◎豆瓣评分 /10 from 0 users
◎豆瓣链接 https://movie.douban.com/subject/35163163/
◎片  长 109分钟
◎主  演 乔安娜·巴隆 Joanne Baron
       迈克·隆巴迪 Mike Lombardi
       尼克·泰拉厚 Niko Terho
       布莱恩·加拉格尔 Brian Gallagher
       Greg Nutcher
◎简  介


  SNO BABIES depicts the grim realities of addiction and its effects on families. Kristen and Hannah are likeable, college-bound teens - and heroin addicts - hiding their plight behind the fa?ade of middle-class suburbia.
  1. Video
  2. ID                                       : 1
  3. Format                                   : AVC
  4. Format/Info                              : Advanced Video Codec
  5. Format profile                           : [email protected]
  6. Format settings                          : CABAC / 5 Ref Frames
  7. Format settings, CABAC                   : Yes
  8. Format settings, Reference frames        : 5 frames
  9. Codec ID                                 : V_MPEG4/ISO/AVC
  10. Duration                                 : 1 h 48 min
  11. Bit rate                                 : 4 596 kb/s
  12. Width                                    : 1 908 pixels
  13. Height                                   : 792 pixels
  14. Display aspect ratio                     : 2.40:1
  15. Frame rate mode                          : Constant
  16. Frame rate                               : 23.976 (24000/1001/189150) FPS
  17. Color space                              : YUV
  18. Chroma subsampling                       : 4:2:0
  19. Bit depth                                : 8 bits
  20. Scan type                                : Progressive
  21. Bits/(Pixel*Frame)                       : 0.127
  22. Stream size                              : 3.49 GiB (92%)
  23. Title                                    : Sno.Babies.2020.1080p.WEB-DL.DD5.1.H264-FGT
  24. Language                                 : English
  25. Default                                  : Yes
  26. Forced                                   : No
  27. Color range                              : Limited
  28. Color primaries                          : BT.709
  29. Transfer characteristics                 : BT.709
  30. Matrix coefficients                      : BT.709
  31. Audio
  32. ID                                       : 2
  33. Format                                   : AC-3
  34. Format/Info                              : Audio Coding 3
  35. Commercial name                          : Dolby Digital
  36. Codec ID                                 : A_AC3
  37. Duration                                 : 1 h 48 min
  38. Bit rate mode                            : Constant
  39. Bit rate                                 : 384 kb/s
  40. Channel(s)                               : 6 channels
  41. Channel layout                           : L R C LFE Ls Rs
  42. Sampling rate                            : 48.0 kHz
  43. Frame rate                               : 31.250 FPS (1536 SPF)
  44. Compression mode                         : Lossy
  45. Stream size                              : 299 MiB (8%)
  46. Title                                    : Sno.Babies.2020.1080p.WEB-DL.DD5.1.H264-FGT
  47. Language                                 : English
  48. Service kind                             : Complete Main
  49. Default                                  : Yes
  50. Forced                                   : No
  51. Text
  52. ID                                       : 3
  53. Format                                   : UTF-8
  54. Codec ID                                 : S_TEXT/UTF8
  55. Codec ID/Info                            : UTF-8 Plain Text
  56. Duration                                 : 1 h 48 min
  57. Bit rate                                 : 46 b/s
  58. Count of elements                        : 1743
  59. Stream size                              : 37.2 KiB (0%)
  60. Language                                 : English
  61. Default                                  : Yes
  62. Forced                                   : No
复制代码






                                       
                                       

                                       
                                       
                                       




回复

使用道具 举报

懒得打字嘛,点击右侧快捷回复 【右侧内容,后台自定义】
您需要登录后才可以回帖 登录 | 立即加入

本版积分规则

Archiver|小黑屋| 蓝光电影网 |网站地图

Copyright © 2021 Comsenz Inc. Powered by 蓝光电影网

蓝光电影网

本站内容由用户自主分享和转载自互联网,转载目的在于传递更多信息,并不代表本网赞同其观点和对其真实性负责。

如有侵权、违反国家法律政策行为,请联系我们,我们会第一时间及时清除和处理!

举报反馈邮箱:[email protected]

快速回复 返回顶部 返回列表