找回密码

蓝光电影网

查看: 22|回复: 0

[剧情] 坏小子的街巷/蜂巢少年 Dayveon.2017.1080p.AMZN.WEBRip.DD5.1.x264-NOGRP 4.04GB

[复制链接]
蓝光币
515
发表于 2021-8-20 01:17:31 | 显示全部楼层 |阅读模式


◎译  名 坏小子的街巷/蜂巢少年(台)
◎片  名 Dayveon
◎年  代 2017
◎产  地 美国
◎类  别 剧情
◎语  言 英语
◎上映日期 2017-01-19(圣丹斯电影节)
◎IMDb评分  6.4/10 from 427 users
◎IMDb链接  https://www.imdb.com/title/tt6266218/
◎豆瓣评分 /10 from 0 users
◎豆瓣链接 https://movie.douban.com/subject/26849777/
◎片  长 75分钟
◎导  演 安曼·阿巴西 Amman Abbasi
◎编  剧 安曼·阿巴西 Amman Abbasi
◎标  签 2017 | 美國電影 | AmmanAbbasi | 美(加)国电影 | 美国电影 | 剧情 | festival_TFF | [4.0/5.0]
◎简  介


  《坏小子的街巷》报告的是一个13岁男孩(Devin Blackmon饰演)若何试着从哥哥归天的阴影中走出来的故事。仆人公夹在关爱并照顾他的姐姐(Chasity Moore饰演)和向他供给归属感的陌头帮派两种关系中挣扎,被迫做出纯真失落后艰难的决定。
◎获奖情况
  第33届圣丹斯电影节 ?(2017)
  观众奖未来创新奖(提名) 安曼·阿巴西
  
  第33届美国自力精神奖 ?(2018)
  约翰·卡萨维茨奖(提名)
  值得关注新人奖(提名) 安曼·阿巴西
  1. Video
  2. ID                                       : 1
  3. Format                                   : AVC
  4. Format/Info                              : Advanced Video Codec
  5. Format profile                           : [email protected]
  6. Format settings                          : CABAC / 4 Ref Frames
  7. Format settings, CABAC                   : Yes
  8. Format settings, Reference frames        : 4 frames
  9. Codec ID                                 : V_MPEG4/ISO/AVC
  10. Duration                                 : 1 h 15 min
  11. Bit rate                                 : 6 985 kb/s
  12. Width                                    : 1 440 pixels
  13. Height                                   : 1 080 pixels
  14. Display aspect ratio                     : 4:3
  15. Frame rate mode                          : Constant
  16. Frame rate                               : 23.976 (24000/1001/189150) FPS
  17. Color space                              : YUV
  18. Chroma subsampling                       : 4:2:0
  19. Bit depth                                : 8 bits
  20. Scan type                                : Progressive
  21. Bits/(Pixel*Frame)                       : 0.187
  22. Stream size                              : 3.70 GiB (92%)
  23. Default                                  : Yes
  24. Forced                                   : No
  25. Color range                              : Limited
  26. Color primaries                          : BT.709
  27. Transfer characteristics                 : BT.709
  28. Matrix coefficients                      : BT.709
  29. Audio
  30. ID                                       : 2
  31. Format                                   : E-AC-3
  32. Format/Info                              : Enhanced AC-3
  33. Commercial name                          : Dolby Digital Plus
  34. Codec ID                                 : A_EAC3
  35. Duration                                 : 1 h 15 min
  36. Bit rate mode                            : Constant
  37. Bit rate                                 : 640 kb/s
  38. Channel(s)                               : 6 channels
  39. Channel layout                           : L R C LFE Ls Rs
  40. Sampling rate                            : 48.0 kHz
  41. Frame rate                               : 31.250 FPS (1536 SPF)
  42. Compression mode                         : Lossy
  43. Stream size                              : 347 MiB (8%)
  44. Language                                 : English
  45. Service kind                             : Complete Main
  46. Default                                  : Yes
  47. Forced                                   : No
  48. Text
  49. ID                                       : 3
  50. Format                                   : UTF-8
  51. Codec ID                                 : S_TEXT/UTF8
  52. Codec ID/Info                            : UTF-8 Plain Text
  53. Duration                                 : 1 h 14 min
  54. Bit rate                                 : 43 b/s
  55. Count of elements                        : 931
  56. Stream size                              : 23.7 KiB (0%)
  57. Language                                 : French
  58. Default                                  : No
  59. Forced                                   : No
复制代码






                                       
                                       

                                       
                                       
                                       




回复

使用道具 举报

懒得打字嘛,点击右侧快捷回复 【右侧内容,后台自定义】
您需要登录后才可以回帖 登录 | 立即加入

本版积分规则

Archiver|小黑屋| 蓝光电影网 |网站地图

Copyright © 2021 Comsenz Inc. Powered by 蓝光电影网

蓝光电影网

本站内容由用户自主分享和转载自互联网,转载目的在于传递更多信息,并不代表本网赞同其观点和对其真实性负责。

如有侵权、违反国家法律政策行为,请联系我们,我们会第一时间及时清除和处理!

举报反馈邮箱:[email protected]

快速回复 返回顶部 返回列表