找回密码

蓝光电影网

查看: 35|回复: 0

[剧情] 赎金内幕/笨贼作大案 Stealing.Sinatra.2003.1080p.AMZN.WEBRip.DDP5.1.x264-NTb 6.89GB

[复制链接]
蓝光币
509
发表于 2021-8-20 01:17:39 | 显示全部楼层 |阅读模式


◎译  名 赎金内幕/笨贼作大案
◎片  名 Stealing Sinatra
◎年  代 2003
◎产  地 美国
◎类  别 剧情 / 笑剧 / 惊悚 / 列传
◎语  言 英语
◎上映日期 2003-01-24
◎IMDb评分  5.6/10 from 649 users
◎IMDb链接  https://www.imdb.com/title/tt0311863/
◎豆瓣评分 /10 from 0 users
◎豆瓣链接 https://movie.douban.com/subject/2245772/
◎片  长 96 分钟(Showtime Library Print)
◎导  演 罗恩·安德伍德 Ron Underwood
◎编  剧 霍华德·考德 Howard Korder
◎主  演 阿伦·道格拉斯 Aaron Douglas
       Brandy Kopp
       埃里克·约翰逊 Eric Johnson
       迈克尔·科普萨 Michael Kopsa
       凯文·麦克纳尔蒂 Kevin McNulty
       大卫·尼克 David Nykl
       柯林·坎宁安 Colin Cunningham
       Johnathan Brownlee
       托马斯·伊恩·尼古拉斯 Thomas Ian Nicholas
       罗伯·布鲁内尔 Rob Bruner
       伊万杰琳·莉莉 Evangeline Lilly
       威廉姆·H·梅西 William H. Macy
       吉莲·芭伯 Gillian Barber
       丹尼尔·巴孔 Daniel Bacon
       詹姆斯·拉索 James Russo
       艾伦·坡尔 Aaron Pearl
       大卫·阿奎特 David Arquette
       Ryan Browning
       马修·本内特 Matthew Bennett
       Michael Coristine
       山姆·麦克莫里 Sam McMurray
◎标  签 美国 | 笑剧 | 美国制造 | 犯罪 | M美国 | D罗恩·安德伍德 | 5 | 观影记录
◎简  介


  In need of a grubstake, a young man convinces a couple of friends to help him kidnap Frank Sinatra Jr. It's a true story.
  1. Video
  2. ID                                       : 1
  3. Format                                   : AVC
  4. Format/Info                              : Advanced Video Codec
  5. Format profile                           : [email protected]
  6. Format settings                          : CABAC / 4 Ref Frames
  7. Format settings, CABAC                   : Yes
  8. Format settings, Reference frames        : 4 frames
  9. Codec ID                                 : V_MPEG4/ISO/AVC
  10. Duration                                 : 1 h 35 min
  11. Bit rate mode                            : Constant
  12. Bit rate                                 : 10 000 kb/s
  13. Width                                    : 1 920 pixels
  14. Height                                   : 1 080 pixels
  15. Display aspect ratio                     : 16:9
  16. Frame rate mode                          : Constant
  17. Frame rate                               : 23.976 (24000/1001/189150) FPS
  18. Color space                              : YUV
  19. Chroma subsampling                       : 4:2:0
  20. Bit depth                                : 8 bits
  21. Scan type                                : Progressive
  22. Bits/(Pixel*Frame)                       : 0.201
  23. Stream size                              : 6.46 GiB (94%)
  24. Default                                  : Yes
  25. Forced                                   : No
  26. Color range                              : Limited
  27. Color primaries                          : BT.709
  28. Transfer characteristics                 : BT.709
  29. Matrix coefficients                      : BT.709
  30. Audio
  31. ID                                       : 2
  32. Format                                   : E-AC-3
  33. Format/Info                              : Enhanced AC-3
  34. Commercial name                          : Dolby Digital Plus
  35. Codec ID                                 : A_EAC3
  36. Duration                                 : 1 h 35 min
  37. Bit rate mode                            : Constant
  38. Bit rate                                 : 640 kb/s
  39. Channel(s)                               : 6 channels
  40. Channel layout                           : L R C LFE Ls Rs
  41. Sampling rate                            : 48.0 kHz
  42. Frame rate                               : 31.250 FPS (1536 SPF)
  43. Compression mode                         : Lossy
  44. Stream size                              : 438 MiB (6%)
  45. Language                                 : English
  46. Service kind                             : Complete Main
  47. Default                                  : Yes
  48. Forced                                   : No
复制代码






                                       
                                       

                                       
                                       
                                       




回复

使用道具 举报

懒得打字嘛,点击右侧快捷回复 【右侧内容,后台自定义】
您需要登录后才可以回帖 登录 | 立即加入

本版积分规则

Archiver|小黑屋| 蓝光电影网 |网站地图

Copyright © 2021 Comsenz Inc. Powered by 蓝光电影网

蓝光电影网

本站内容由用户自主分享和转载自互联网,转载目的在于传递更多信息,并不代表本网赞同其观点和对其真实性负责。

如有侵权、违反国家法律政策行为,请联系我们,我们会第一时间及时清除和处理!

举报反馈邮箱:[email protected]

快速回复 返回顶部 返回列表