找回密码

蓝光电影网

查看: 19|回复: 0

[剧情] 女初中生A Student.A.2018.KOREAN.1080p.NF.WEBRip.DDP5.1.x264-PTP 4.02GB

[复制链接]
蓝光币
515
发表于 2021-8-20 01:17:56 | 显示全部楼层 |阅读模式


◎译  名 女初中生A/Student A/初中女生A的虚拟乐园(港)/女中生A/未来的青春笔记(台)
◎片  名 ???A
◎年  代 2018
◎产  地 韩国
◎类  别 剧情
◎语  言 韩语
◎上映日期 2018-06-20(韩国)
◎IMDb评分  7.3/10 from 95 users
◎IMDb链接  https://www.imdb.com/title/tt8574270/
◎豆瓣评分 6.6/10 from 444 users
◎豆瓣链接 https://movie.douban.com/subject/30207776/
◎片  长 110分钟(韩国)
◎导  演 李敬燮 Kyung-Sub Lee
◎主  演 郑多恩 Jung Da-eun
       郑多彬 Da-bin Jung
       金焕熙 Kim Hwan-hee
       金俊勉 SUHO
       刘宰尚 Jae-sang Yoo
       玉允中 Yoon-joong Ok
       郑亨奭 Hyeong-Seok Jeong
       金贤彬 Hyun-bin Kim
       李钟赫 Jong-hyeok Lee
◎标  签 韩国电影 | 韩国 | 青春 | 长大 | 电影 | 韩剧 | 金俊勉 | 韩影
◎简  介


  该片按照同名收集人气漫画改编,报告了存在被排挤、家庭暴力、游戏中毒、厌女症等社会题目标中门生逐步起头与社会打仗,并进修若何与人相处的故事。
  1. Video
  2. ID                                       : 1
  3. Format                                   : AVC
  4. Format/Info                              : Advanced Video Codec
  5. Format profile                           : [email protected]
  6. Format settings                          : CABAC / 3 Ref Frames
  7. Format settings, CABAC                   : Yes
  8. Format settings, Reference frames        : 3 frames
  9. Codec ID                                 : V_MPEG4/ISO/AVC
  10. Duration                                 : 1 h 53 min
  11. Bit rate mode                            : Variable
  12. Bit rate                                 : 4 420 kb/s
  13. Maximum bit rate                         : 6 630 kb/s
  14. Width                                    : 1 920 pixels
  15. Height                                   : 1 080 pixels
  16. Display aspect ratio                     : 16:9
  17. Frame rate mode                          : Constant
  18. Frame rate                               : 23.976 (24000/1001/189150) FPS
  19. Color space                              : YUV
  20. Chroma subsampling                       : 4:2:0
  21. Bit depth                                : 8 bits
  22. Scan type                                : Progressive
  23. Bits/(Pixel*Frame)                       : 0.089
  24. Stream size                              : 3.51 GiB (87%)
  25. Writing library                          : x264 core 148 r2722 1b0121b
  26. Encoding settings                        : cabac=1 / ref=3 / deblock=1:0:0 / analyse=0x1:0x111 / me=umh / subme=10 / psy=1 / psy_rd=1.00:0.00 / mixed_ref=1 / me_range=24 / chroma_me=1 / trellis=2 / 8x8dct=0 / cqm=0 / deadzone=21,11 / fast_pskip=1 / chroma_qp_offset=-2 / threads=8 / lookahead_threads=1 / sliced_threads=0 / nr=0 / decimate=1 / interlaced=0 / bluray_compat=0 / stitchable=1 / constrained_intra=0 / bframes=2 / b_pyramid=0 / b_adapt=2 / b_bias=0 / direct=3 / weightb=1 / open_gop=0 / weightp=2 / keyint=250 / keyint_min=23 / scenecut=0 / intra_refresh=0 / rc_lookahead=48 / rc=2pass / mbtree=1 / bitrate=4420 / ratetol=1.0 / qcomp=0.50 / qpmin=6 / qpmax=51 / qpstep=4 / cplxblur=20.0 / qblur=0.5 / vbv_maxrate=6630 / vbv_bufsize=8840 / nal_hrd=vbr / filler=0 / ip_ratio=1.40 / aq=1:1.00
  27. Default                                  : Yes
  28. Forced                                   : No
  29. Audio
  30. ID                                       : 2
  31. Format                                   : E-AC-3
  32. Format/Info                              : Enhanced AC-3
  33. Commercial name                          : Dolby Digital Plus
  34. Codec ID                                 : A_EAC3
  35. Duration                                 : 1 h 53 min
  36. Bit rate mode                            : Constant
  37. Bit rate                                 : 640 kb/s
  38. Channel(s)                               : 6 channels
  39. Channel layout                           : L R C LFE Ls Rs
  40. Sampling rate                            : 48.0 kHz
  41. Frame rate                               : 31.250 FPS (1536 SPF)
  42. Compression mode                         : Lossy
  43. Stream size                              : 522 MiB (13%)
  44. Language                                 : Korean
  45. Service kind                             : Complete Main
  46. Default                                  : Yes
  47. Forced                                   : No
  48. Text #1
  49. ID                                       : 3
  50. Format                                   : UTF-8
  51. Codec ID                                 : S_TEXT/UTF8
  52. Codec ID/Info                            : UTF-8 Plain Text
  53. Duration                                 : 1 h 48 min
  54. Bit rate                                 : 25 b/s
  55. Count of elements                        : 844
  56. Stream size                              : 19.9 KiB (0%)
  57. Language                                 : English
  58. Default                                  : Yes
  59. Forced                                   : No
  60. Text #2
  61. ID                                       : 4
  62. Format                                   : UTF-8
  63. Codec ID                                 : S_TEXT/UTF8
  64. Codec ID/Info                            : UTF-8 Plain Text
  65. Duration                                 : 1 h 48 min
  66. Bit rate                                 : 54 b/s
  67. Count of elements                        : 1382
  68. Stream size                              : 43.4 KiB (0%)
  69. Title                                    : SDH
  70. Language                                 : Korean
  71. Default                                  : No
  72. Forced                                   : No
复制代码






                                       
                                       

                                       
                                       
                                       




回复

使用道具 举报

懒得打字嘛,点击右侧快捷回复 【右侧内容,后台自定义】
您需要登录后才可以回帖 登录 | 立即加入

本版积分规则

Archiver|小黑屋| 蓝光电影网 |网站地图

Copyright © 2021 Comsenz Inc. Powered by 蓝光电影网

蓝光电影网

本站内容由用户自主分享和转载自互联网,转载目的在于传递更多信息,并不代表本网赞同其观点和对其真实性负责。

如有侵权、违反国家法律政策行为,请联系我们,我们会第一时间及时清除和处理!

举报反馈邮箱:[email protected]

快速回复 返回顶部 返回列表