找回密码

蓝光电影网

查看: 34|回复: 0

[剧情] 抗拒:柳宽顺的故事 A.Resistance.2019.KOREAN.1080p.NF.WEBRip.DDP5.1.x264-PTP 3.88GB

[复制链接]
蓝光币
519
发表于 2021-8-20 01:18:08 | 显示全部楼层 |阅读模式


◎译  名 顺从:柳宽顺的故事/A Resistance/Resistance: The Yoo Kwan-soon Story/韓幗起義(港)
◎片  名 ??: ??? ???
◎年  代 2019
◎产  地 韩国
◎类  别 剧情
◎语  言 韩语
◎上映日期 2019-02-27(韩国)
◎IMDb评分  6/10 from 48 users
◎IMDb链接  https://www.imdb.com/title/tt10276054/
◎豆瓣评分 7.3/10 from 459 users
◎豆瓣链接 https://movie.douban.com/subject/30461808/
◎片  长 105分钟
◎导  演 赵民镐 Min-ho Cho
◎编  剧 赵民镐 Min-ho Cho
◎主  演 文雅星 Ah-sung Ko
       金玺碧 Sae-byuk Kim
       金艺恩 Ye-eun Kim
       丁夏潭 Ha-dam Jeong
       柳京洙 Ryoo Kyung-soo
       金南珍 Kim Nam-jin
       李英锡 Yeong-seok Lee
       崔武成 Moo-seong Choi
        金妍贞 Yeon-jung Kim
       朴贊佑 Chan-woo Park
       金智星 Ji-seong Kim
       陈浩恩 Jin Ho-eun
◎标  签 韩国 | 历史 | 女性 | 政治 | 剧情 | 2019 | 记载片 | 实在事务改编
◎简  介


  「反动無分性別、年齡與時代!電影取材自真實韓國獨立運動,以年輕反动女義士柳寬順為原型,見證一段鮮為人知的歷史。日佔時期,韓國爆發三一運動,十七歲少女上街帶領逾二百萬韓國民眾抗爭,卻被捕软禁在女子地下監獄,受盡各式侮辱。她不但沒有噤若寒蟬,反而挺身感化其他犯人打破沉默,從自我覺醒走向集體覺醒,在獄中配合高呼「大韓獨立萬歲」的口號。黑白鏡頭下的獄中气象分外銳利,眾人以堅毅的眼神明志:監獄的高牆囚得住肉體,卻困不住自在的靈魂。高我星從《韓流怪嚇》嶄露頭角,到《末世列車》已成氣候,是次飾演烈女同樣鏗鏘有力。在最壞的時代,讓我們為這位巾幗豪杰及一切因抗爭犧牲的義士獻一闋輓歌。
◎获奖情况
  第40届韩国电影青龙奖 ?(2019)
  最好女配角(提名) 文雅星
  
  第55届百想艺术大赏 ?(2019)
  电影类最好女配角(提名) 文雅星
  
  第56届韩国电影大钟奖 ?(2020)
  最好打扮(提名)
  1. Video
  2. ID                                       : 1
  3. Format                                   : AVC
  4. Format/Info                              : Advanced Video Codec
  5. Format profile                           : [email protected]
  6. Format settings                          : CABAC / 3 Ref Frames
  7. Format settings, CABAC                   : Yes
  8. Format settings, Reference frames        : 3 frames
  9. Codec ID                                 : V_MPEG4/ISO/AVC
  10. Duration                                 : 1 h 45 min
  11. Bit rate mode                            : Variable
  12. Bit rate                                 : 4 640 kb/s
  13. Maximum bit rate                         : 6 960 kb/s
  14. Width                                    : 1 920 pixels
  15. Height                                   : 1 080 pixels
  16. Display aspect ratio                     : 16:9
  17. Frame rate mode                          : Constant
  18. Frame rate                               : 23.976 (24000/1001/189150) FPS
  19. Color space                              : YUV
  20. Chroma subsampling                       : 4:2:0
  21. Bit depth                                : 8 bits
  22. Scan type                                : Progressive
  23. Bits/(Pixel*Frame)                       : 0.093
  24. Stream size                              : 3.41 GiB (88%)
  25. Writing library                          : x264 core 148 r2722 1b0121b
  26. Encoding settings                        : cabac=1 / ref=3 / deblock=1:0:0 / analyse=0x1:0x111 / me=umh / subme=10 / psy=1 / psy_rd=1.00:0.00 / mixed_ref=1 / me_range=24 / chroma_me=1 / trellis=2 / 8x8dct=0 / cqm=0 / deadzone=21,11 / fast_pskip=1 / chroma_qp_offset=-2 / threads=8 / lookahead_threads=1 / sliced_threads=0 / nr=0 / decimate=1 / interlaced=0 / bluray_compat=0 / stitchable=1 / constrained_intra=0 / bframes=2 / b_pyramid=0 / b_adapt=2 / b_bias=0 / direct=3 / weightb=1 / open_gop=0 / weightp=2 / keyint=250 / keyint_min=23 / scenecut=0 / intra_refresh=0 / rc_lookahead=48 / rc=2pass / mbtree=1 / bitrate=4640 / ratetol=1.0 / qcomp=0.50 / qpmin=6 / qpmax=51 / qpstep=4 / cplxblur=20.0 / qblur=0.5 / vbv_maxrate=6960 / vbv_bufsize=9280 / nal_hrd=vbr / filler=0 / ip_ratio=1.40 / aq=1:1.00
  27. Default                                  : Yes
  28. Forced                                   : No
  29. Audio
  30. ID                                       : 2
  31. Format                                   : E-AC-3
  32. Format/Info                              : Enhanced AC-3
  33. Commercial name                          : Dolby Digital Plus
  34. Codec ID                                 : A_EAC3
  35. Duration                                 : 1 h 45 min
  36. Bit rate mode                            : Constant
  37. Bit rate                                 : 640 kb/s
  38. Channel(s)                               : 6 channels
  39. Channel layout                           : L R C LFE Ls Rs
  40. Sampling rate                            : 48.0 kHz
  41. Frame rate                               : 31.250 FPS (1536 SPF)
  42. Compression mode                         : Lossy
  43. Stream size                              : 483 MiB (12%)
  44. Language                                 : Korean
  45. Service kind                             : Complete Main
  46. Default                                  : Yes
  47. Forced                                   : No
  48. Text #1
  49. ID                                       : 3
  50. Format                                   : UTF-8
  51. Codec ID                                 : S_TEXT/UTF8
  52. Codec ID/Info                            : UTF-8 Plain Text
  53. Duration                                 : 1 h 41 min
  54. Bit rate                                 : 30 b/s
  55. Count of elements                        : 898
  56. Stream size                              : 22.5 KiB (0%)
  57. Language                                 : English
  58. Default                                  : Yes
  59. Forced                                   : No
  60. Text #2
  61. ID                                       : 4
  62. Format                                   : UTF-8
  63. Codec ID                                 : S_TEXT/UTF8
  64. Codec ID/Info                            : UTF-8 Plain Text
  65. Duration                                 : 1 h 44 min
  66. Bit rate                                 : 61 b/s
  67. Count of elements                        : 1553
  68. Stream size                              : 46.8 KiB (0%)
  69. Title                                    : SDH
  70. Language                                 : Korean
  71. Default                                  : No
  72. Forced                                   : No
  73. Text #3
  74. ID                                       : 5
  75. Format                                   : UTF-8
  76. Codec ID                                 : S_TEXT/UTF8
  77. Codec ID/Info                            : UTF-8 Plain Text
  78. Duration                                 : 1 h 43 min
  79. Bit rate                                 : 11 b/s
  80. Count of elements                        : 363
  81. Stream size                              : 8.91 KiB (0%)
  82. Title                                    : Forced
  83. Language                                 : Korean
  84. Default                                  : No
  85. Forced                                   : No
复制代码






                                       
                                       

                                       
                                       
                                       




回复

使用道具 举报

懒得打字嘛,点击右侧快捷回复 【右侧内容,后台自定义】
您需要登录后才可以回帖 登录 | 立即加入

本版积分规则

Archiver|小黑屋| 蓝光电影网 |网站地图

Copyright © 2021 Comsenz Inc. Powered by 蓝光电影网

蓝光电影网

本站内容由用户自主分享和转载自互联网,转载目的在于传递更多信息,并不代表本网赞同其观点和对其真实性负责。

如有侵权、违反国家法律政策行为,请联系我们,我们会第一时间及时清除和处理!

举报反馈邮箱:[email protected]

快速回复 返回顶部 返回列表