找回密码

蓝光电影网

查看: 21|回复: 0

[剧情] 瓦科尔达 The.German.Doctor.2013.SPANISH.ENSUBBED.1080p.AMZN.WEBRip.DDP5.1.x264-SiGMA 3.77GB

[复制链接]
蓝光币
519
发表于 2021-8-20 01:18:21 | 显示全部楼层 |阅读模式


◎译  名 瓦科尔达/The German Doctor/亲爱的德国医生(台)
◎片  名 Wakolda
◎年  代 2013
◎产  地 阿根廷,法国,西班牙,挪威
◎类  别 剧情 / 惊悚 / 历史
◎语  言 德语,西班牙语,希伯来语
◎上映日期 2013-05(戛纳电影节) / 2013-08-29(阿根廷)
◎IMDb评分  6.7/10 from 6511 users
◎IMDb链接  https://www.imdb.com/title/tt1847746/
◎豆瓣评分 6.7/10 from 67 users
◎豆瓣链接 https://movie.douban.com/subject/6392382/
◎片  长 94分钟
◎导  演 卢西娅·普恩佐 Lucía Puenzo
◎编  剧 卢西娅·普恩佐 Lucía Puenzo
◎主  演 亚历克斯·布伦德缪尔 àlex Brendemühl
       娜塔莉亚·欧瑞洛 Natalia Oreiro
       Ana Pauls
       迭戈·佩雷蒂 Diego Peretti
       埃莱娜·罗杰 Elena Roger
       吉列尔莫·普宁 Guillermo Pfening
◎标  签 阿根廷 | 阿根廷电影 | 2013 | 欧洲 | 阿根廷電影 | 悬疑 | Spanish | LucíaPuenzo
◎简  介


  1960年的阿根廷巴塔哥尼亚,一个德国医师(àlex Brendemühl 饰)在前往Bariloche的途中碰到了Eva(娜塔莉亚·欧瑞洛 Natalia Oreiro 饰)、Enzo(迭戈·佩雷蒂 Diego Peretti 饰)和他们的三个孩子,后者正预备在 Nahuel Huapi湖畔开设堆栈。这个榜样家庭,特别是看上去小于其年龄的12岁的小女孩Lilith(Florencia Bado 饰),重新激起了他对纯洁与完善的追求。对其实在身份并不知晓的一家五口,将他视为第一个客人。他们渐渐被这个汉子的本性、举手投足间的贵族气派、渊博的学问及丰富的财力所吸引。直到他们意想到自己身旁这小我是有史以来最大的罪犯之一。
  
  按照实在事务改编。
◎获奖情况
  第66届戛纳电影节 ?(2013)
  一种关注单元一种关注大奖(提名) 卢西娅·普恩佐
  
  第28届西班牙戈雅奖 ?(2014)
  最好伊比利亚美洲电影(提名) 卢西娅·普恩佐
  1. Video
  2. ID                                       : 1
  3. Format                                   : AVC
  4. Format/Info                              : Advanced Video Codec
  5. Format profile                           : [email protected]
  6. Format settings                          : CABAC / 4 Ref Frames
  7. Format settings, CABAC                   : Yes
  8. Format settings, Reference frames        : 4 frames
  9. Codec ID                                 : V_MPEG4/ISO/AVC
  10. Duration                                 : 1 h 33 min
  11. Bit rate                                 : 5 094 kb/s
  12. Width                                    : 1 920 pixels
  13. Height                                   : 816 pixels
  14. Display aspect ratio                     : 2.35:1
  15. Frame rate mode                          : Constant
  16. Frame rate                               : 23.976 (24000/1001/189150) FPS
  17. Color space                              : YUV
  18. Chroma subsampling                       : 4:2:0
  19. Bit depth                                : 8 bits
  20. Scan type                                : Progressive
  21. Bits/(Pixel*Frame)                       : 0.136
  22. Stream size                              : 3.34 GiB (89%)
  23. Default                                  : Yes
  24. Forced                                   : No
  25. Color range                              : Limited
  26. Color primaries                          : BT.709
  27. Transfer characteristics                 : BT.709
  28. Matrix coefficients                      : BT.709
  29. Audio
  30. ID                                       : 2
  31. Format                                   : E-AC-3
  32. Format/Info                              : Enhanced AC-3
  33. Commercial name                          : Dolby Digital Plus
  34. Codec ID                                 : A_EAC3
  35. Duration                                 : 1 h 33 min
  36. Bit rate mode                            : Constant
  37. Bit rate                                 : 640 kb/s
  38. Channel(s)                               : 6 channels
  39. Channel layout                           : L R C LFE Ls Rs
  40. Sampling rate                            : 48.0 kHz
  41. Frame rate                               : 31.250 FPS (1536 SPF)
  42. Compression mode                         : Lossy
  43. Stream size                              : 430 MiB (11%)
  44. Language                                 : Spanish
  45. Service kind                             : Complete Main
  46. Default                                  : Yes
  47. Forced                                   : No
  48. Text
  49. ID                                       : 3
  50. Format                                   : UTF-8
  51. Codec ID                                 : S_TEXT/UTF8
  52. Codec ID/Info                            : UTF-8 Plain Text
  53. Duration                                 : 1 h 28 min
  54. Bit rate                                 : 2 b/s
  55. Count of elements                        : 104
  56. Stream size                              : 1.82 KiB (0%)
  57. Title                                    : English (SDH)
  58. Language                                 : English
  59. Default                                  : No
  60. Forced                                   : No
复制代码






                                       
                                       

                                       
                                       
                                       




回复

使用道具 举报

懒得打字嘛,点击右侧快捷回复 【右侧内容,后台自定义】
您需要登录后才可以回帖 登录 | 立即加入

本版积分规则

Archiver|小黑屋| 蓝光电影网 |网站地图

Copyright © 2021 Comsenz Inc. Powered by 蓝光电影网

蓝光电影网

本站内容由用户自主分享和转载自互联网,转载目的在于传递更多信息,并不代表本网赞同其观点和对其真实性负责。

如有侵权、违反国家法律政策行为,请联系我们,我们会第一时间及时清除和处理!

举报反馈邮箱:[email protected]

快速回复 返回顶部 返回列表