找回密码

蓝光电影网

查看: 30|回复: 0

[剧情] 勇士的心愿 The.Terry.Fox.Story.1983.1080p.AMZN.WEBRip.DDP2.0.x264-NTb 6.46GB

[复制链接]
蓝光币
515
发表于 2021-8-20 01:18:26 | 显示全部楼层 |阅读模式


◎译  名 勇士的心愿
◎片  名 The Terry Fox Story
◎年  代 1983
◎产  地 加拿大,美国
◎类  别 剧情 / 列传 / 活动
◎语  言 英语
◎上映日期 1983-05-22
◎IMDb评分  7.1/10 from 530 users
◎IMDb链接  https://www.imdb.com/title/tt0086427/
◎豆瓣评分 /10 from 0 users
◎豆瓣链接 https://movie.douban.com/subject/1918534/
◎片  长 97分钟
◎导  演 拉尔夫·L·托马斯 Ralph L. Thomas
◎编  剧 爱德华·休姆 Edward Hume
◎主  演 Roberta Weiss
       Paul Bernardo
       马特·克拉文 Matt Craven
       赵家玲 Rosalind Chao
       Patrick Watson
       罗伯特·杜瓦尔 Robert Duvall
       绍尔·鲁宾内克 Saul Rubinek
       克里斯梅克皮斯 Chris Makepeace
◎标  签 加拿大 | 励志 | 列传 | terry | 记载片 | 精神 | fox | 体育
◎简  介


  This movie is right up there with Rocky and maybe even more uplifting as it is based on a true story. It is a story of Terry Fox, a young man diagnosed with cancer and forced to give up most of his leg. In the hospital he is horrified at the condition of the young children who are fighting various types of cancer. He decides to raise money by running across Canada. To this day there are Terry Fox races all over Canada to keep raising money for Terry's cause. This movie is out of production but I was able to rent it.
  1. Video
  2. ID                                       : 1
  3. Format                                   : AVC
  4. Format/Info                              : Advanced Video Codec
  5. Format profile                           : [email protected]
  6. Format settings                          : CABAC / 4 Ref Frames
  7. Format settings, CABAC                   : Yes
  8. Format settings, Reference frames        : 4 frames
  9. Codec ID                                 : V_MPEG4/ISO/AVC
  10. Duration                                 : 1 h 32 min
  11. Bit rate mode                            : Constant
  12. Bit rate                                 : 10 000 kb/s
  13. Width                                    : 1 920 pixels
  14. Height                                   : 1 080 pixels
  15. Display aspect ratio                     : 16:9
  16. Frame rate mode                          : Constant
  17. Frame rate                               : 25.000 FPS
  18. Color space                              : YUV
  19. Chroma subsampling                       : 4:2:0
  20. Bit depth                                : 8 bits
  21. Scan type                                : Progressive
  22. Bits/(Pixel*Frame)                       : 0.193
  23. Stream size                              : 6.32 GiB (98%)
  24. Default                                  : Yes
  25. Forced                                   : No
  26. Color range                              : Limited
  27. Color primaries                          : BT.709
  28. Transfer characteristics                 : BT.709
  29. Matrix coefficients                      : BT.709
  30. Audio
  31. ID                                       : 2
  32. Format                                   : E-AC-3
  33. Format/Info                              : Enhanced AC-3
  34. Commercial name                          : Dolby Digital Plus
  35. Codec ID                                 : A_EAC3
  36. Duration                                 : 1 h 32 min
  37. Bit rate mode                            : Constant
  38. Bit rate                                 : 224 kb/s
  39. Channel(s)                               : 2 channels
  40. Channel layout                           : L R
  41. Sampling rate                            : 48.0 kHz
  42. Frame rate                               : 31.250 FPS (1536 SPF)
  43. Compression mode                         : Lossy
  44. Stream size                              : 149 MiB (2%)
  45. Language                                 : English
  46. Service kind                             : Complete Main
  47. Default                                  : Yes
  48. Forced                                   : No
复制代码





                                       
                                       

                                       
                                       
                                       




回复

使用道具 举报

懒得打字嘛,点击右侧快捷回复 【右侧内容,后台自定义】
您需要登录后才可以回帖 登录 | 立即加入

本版积分规则

Archiver|小黑屋| 蓝光电影网 |网站地图

Copyright © 2021 Comsenz Inc. Powered by 蓝光电影网

蓝光电影网

本站内容由用户自主分享和转载自互联网,转载目的在于传递更多信息,并不代表本网赞同其观点和对其真实性负责。

如有侵权、违反国家法律政策行为,请联系我们,我们会第一时间及时清除和处理!

举报反馈邮箱:[email protected]

快速回复 返回顶部 返回列表