找回密码

蓝光电影网

查看: 26|回复: 0

[剧情] 在房间里 In.My.Room.2020.FRENCH.1080p.AMZN.WEBRip.DDP2.0.x264-MZABI 1.28GB

[复制链接]
蓝光币
511
发表于 2021-8-20 01:18:42 | 显示全部楼层 |阅读模式


◎译  名 在房间里
◎片  名 In My Room
◎年  代 2020
◎产  地 法国,意大利
◎类  别 剧情 / 短片
◎上映日期 2020-09-06(威尼斯电影节)
◎IMDb评分  6.2/10 from 250 users
◎IMDb链接  https://www.imdb.com/title/tt12762684/
◎豆瓣评分 /10 from 0 users
◎豆瓣链接 https://movie.douban.com/subject/35154340/
◎片  长 20分钟
◎导  演 玛缇·迪欧普 Mati Diop
◎编  剧 玛缇·迪欧普 Mati Diop
◎标  签 短片 | 2020 | 法国 | MatiDiop | 2020s | 玛缇·迪欧普 | mubi | 电影
◎简  介


  暂无相关剧情先容
  1. Video
  2. ID                                       : 1
  3. Format                                   : AVC
  4. Format/Info                              : Advanced Video Codec
  5. Format profile                           : [email protected]
  6. Format settings                          : CABAC / 4 Ref Frames
  7. Format settings, CABAC                   : Yes
  8. Format settings, Reference frames        : 4 frames
  9. Codec ID                                 : V_MPEG4/ISO/AVC
  10. Duration                                 : 19 min 59 s
  11. Bit rate mode                            : Constant
  12. Bit rate                                 : 8 940 kb/s
  13. Nominal bit rate                         : 10 000 kb/s
  14. Width                                    : 1 920 pixels
  15. Height                                   : 1 080 pixels
  16. Display aspect ratio                     : 16:9
  17. Frame rate mode                          : Constant
  18. Frame rate                               : 25.000 FPS
  19. Color space                              : YUV
  20. Chroma subsampling                       : 4:2:0
  21. Bit depth                                : 8 bits
  22. Scan type                                : Progressive
  23. Bits/(Pixel*Frame)                       : 0.172
  24. Stream size                              : 1.25 GiB (98%)
  25. Default                                  : Yes
  26. Forced                                   : No
  27. Color range                              : Limited
  28. Color primaries                          : BT.709
  29. Transfer characteristics                 : BT.709
  30. Matrix coefficients                      : BT.709
  31. Audio
  32. ID                                       : 2
  33. Format                                   : E-AC-3
  34. Format/Info                              : Enhanced AC-3
  35. Commercial name                          : Dolby Digital Plus
  36. Codec ID                                 : A_EAC3
  37. Duration                                 : 19 min 59 s
  38. Bit rate mode                            : Constant
  39. Bit rate                                 : 224 kb/s
  40. Channel(s)                               : 2 channels
  41. Channel layout                           : L R
  42. Sampling rate                            : 48.0 kHz
  43. Frame rate                               : 31.250 FPS (1536 SPF)
  44. Compression mode                         : Lossy
  45. Stream size                              : 32.0 MiB (2%)
  46. Title                                    : French
  47. Language                                 : French
  48. Service kind                             : Complete Main
  49. Default                                  : No
  50. Forced                                   : No
  51. Text #1
  52. ID                                       : 3
  53. Format                                   : UTF-8
  54. Codec ID                                 : S_TEXT/UTF8
  55. Codec ID/Info                            : UTF-8 Plain Text
  56. Duration                                 : 17 min 30 s
  57. Bit rate                                 : 54 b/s
  58. Count of elements                        : 164
  59. Stream size                              : 7.02 KiB (0%)
  60. Title                                    : German
  61. Language                                 : German
  62. Default                                  : No
  63. Forced                                   : No
  64. Text #2
  65. ID                                       : 4
  66. Format                                   : UTF-8
  67. Codec ID                                 : S_TEXT/UTF8
  68. Codec ID/Info                            : UTF-8 Plain Text
  69. Duration                                 : 17 min 30 s
  70. Bit rate                                 : 46 b/s
  71. Count of elements                        : 164
  72. Stream size                              : 5.98 KiB (0%)
  73. Title                                    : English
  74. Language                                 : English
  75. Default                                  : No
  76. Forced                                   : No
  77. Text #3
  78. ID                                       : 5
  79. Format                                   : UTF-8
  80. Codec ID                                 : S_TEXT/UTF8
  81. Codec ID/Info                            : UTF-8 Plain Text
  82. Duration                                 : 17 min 30 s
  83. Bit rate                                 : 48 b/s
  84. Count of elements                        : 164
  85. Stream size                              : 6.27 KiB (0%)
  86. Title                                    : Castilian
  87. Language                                 : Spanish
  88. Default                                  : No
  89. Forced                                   : No
  90. Text #4
  91. ID                                       : 6
  92. Format                                   : UTF-8
  93. Codec ID                                 : S_TEXT/UTF8
  94. Codec ID/Info                            : UTF-8 Plain Text
  95. Duration                                 : 18 min 59 s
  96. Bit rate                                 : 52 b/s
  97. Count of elements                        : 172
  98. Stream size                              : 7.25 KiB (0%)
  99. Title                                    : French
  100. Language                                 : French
  101. Default                                  : No
  102. Forced                                   : No
  103. Text #5
  104. ID                                       : 7
  105. Format                                   : UTF-8
  106. Codec ID                                 : S_TEXT/UTF8
  107. Codec ID/Info                            : UTF-8 Plain Text
  108. Duration                                 : 17 min 30 s
  109. Bit rate                                 : 54 b/s
  110. Count of elements                        : 181
  111. Stream size                              : 6.96 KiB (0%)
  112. Title                                    : Italian
  113. Language                                 : Italian
  114. Default                                  : No
  115. Forced                                   : No
  116. Text #6
  117. ID                                       : 8
  118. Format                                   : UTF-8
  119. Codec ID                                 : S_TEXT/UTF8
  120. Codec ID/Info                            : UTF-8 Plain Text
  121. Duration                                 : 17 min 30 s
  122. Bit rate                                 : 68 b/s
  123. Count of elements                        : 179
  124. Stream size                              : 8.85 KiB (0%)
  125. Title                                    : Japanese
  126. Language                                 : Japanese
  127. Default                                  : No
  128. Forced                                   : No
  129. Text #7
  130. ID                                       : 9
  131. Format                                   : UTF-8
  132. Codec ID                                 : S_TEXT/UTF8
  133. Codec ID/Info                            : UTF-8 Plain Text
  134. Duration                                 : 17 min 30 s
  135. Bit rate                                 : 66 b/s
  136. Count of elements                        : 179
  137. Stream size                              : 8.55 KiB (0%)
  138. Title                                    : Korean
  139. Language                                 : Korean
  140. Default                                  : No
  141. Forced                                   : No
  142. Text #8
  143. ID                                       : 10
  144. Format                                   : UTF-8
  145. Codec ID                                 : S_TEXT/UTF8
  146. Codec ID/Info                            : UTF-8 Plain Text
  147. Duration                                 : 19 min 3 s
  148. Bit rate                                 : 43 b/s
  149. Count of elements                        : 165
  150. Stream size                              : 6.13 KiB (0%)
  151. Title                                    : Brazilian Portuguese
  152. Language                                 : Portuguese
  153. Default                                  : No
  154. Forced                                   : No
  155. Text #9
  156. ID                                       : 11
  157. Format                                   : UTF-8
  158. Codec ID                                 : S_TEXT/UTF8
  159. Codec ID/Info                            : UTF-8 Plain Text
  160. Duration                                 : 18 min 41 s
  161. Bit rate                                 : 56 b/s
  162. Count of elements                        : 183
  163. Stream size                              : 7.68 KiB (0%)
  164. Title                                    : Turkish
  165. Language                                 : Turkish
  166. Default                                  : No
  167. Forced                                   : No
  168. Text #10
  169. ID                                       : 12
  170. Format                                   : UTF-8
  171. Codec ID                                 : S_TEXT/UTF8
  172. Codec ID/Info                            : UTF-8 Plain Text
  173. Duration                                 : 17 min 30 s
  174. Bit rate                                 : 60 b/s
  175. Count of elements                        : 180
  176. Stream size                              : 7.79 KiB (0%)
  177. Title                                    : Chinese (Simplified)
  178. Language                                 : Chinese
  179. Default                                  : No
  180. Forced                                   : No
复制代码






                                       
                                       

                                       
                                       
                                       




回复

使用道具 举报

懒得打字嘛,点击右侧快捷回复 【右侧内容,后台自定义】
您需要登录后才可以回帖 登录 | 立即加入

本版积分规则

Archiver|小黑屋| 蓝光电影网 |网站地图

Copyright © 2021 Comsenz Inc. Powered by 蓝光电影网

蓝光电影网

本站内容由用户自主分享和转载自互联网,转载目的在于传递更多信息,并不代表本网赞同其观点和对其真实性负责。

如有侵权、违反国家法律政策行为,请联系我们,我们会第一时间及时清除和处理!

举报反馈邮箱:[email protected]

快速回复 返回顶部 返回列表