找回密码

蓝光电影网

查看: 13|回复: 0

[剧情] 纸袋头 Baghead.2008.1080p.AMZN.WEBRip.DDP5.1.x264-CANDIAL 7.71GB

[复制链接]
蓝光币
509
发表于 2021-8-20 01:18:59 | 显示全部楼层 |阅读模式


◎译  名 纸袋头
◎片  名 Baghead
◎年  代 2008
◎产  地 美国
◎类  别 剧情 / 笑剧 / 恋爱 / 可骇
◎语  言 英语
◎上映日期 2008-01-22
◎IMDb评分  6/10 from 4261 users
◎IMDb链接  https://www.imdb.com/title/tt0923600/
◎豆瓣评分 6.0/10 from 183 users
◎豆瓣链接 https://movie.douban.com/subject/3006320/
◎片  长 84 分钟
◎导  演 杰伊·杜普拉斯 Jay Duplass / 马克·杜普拉斯 Mark Duplass
◎编  剧 杰伊·杜普拉斯 Jay Duplass / 马克·杜普拉斯 Mark Duplass
◎主  演 罗斯·帕特里奇 Ross Partridge
       史蒂夫·齐西斯 Steve Zissis
       格蕾塔·葛韦格 Greta Gerwig
       丹·埃格尔斯顿 Dan Eggleston
       Vincent James Prendergast
       Spencer Greenwood
       Anthony Cristo
       珍妮弗·拉弗勒 Jennifer Lafleur
       Elise Muller
       大卫·泽尔纳 David Zellner
◎标  签 美国 | 我看过的电影 | 自力 | 美国电影 | 我看过的英语电影 | 纸袋头 | 笑剧 | 我的标签
◎简  介


  杜普拉斯兄弟在拍摄电影《帕妃椅》时代,一群摄制组成员无聊时提出一个题目:你能想到的让你惊慌的工作是什么?有人立即回答:一个头上戴着袋子的人盯着你的窗口。对于这一说法,有的人赞成,但有的人不以为然,以为这很荒诞,大概很滑稽,但一点都不会引发惊慌。因而,《纸袋头》随之诞生,试图捉住那种“头上戴袋子”的荒诞感受,建造出一部滑稽、实在、心爱的电影,固然也许——仅仅也许,有一点点的恐惧。
  1. Video
  2. ID                                       : 1
  3. Format                                   : AVC
  4. Format/Info                              : Advanced Video Codec
  5. Format profile                           : [email protected]
  6. Format settings                          : CABAC / 4 Ref Frames
  7. Format settings, CABAC                   : Yes
  8. Format settings, Reference frames        : 4 frames
  9. Codec ID                                 : V_MPEG4/ISO/AVC
  10. Duration                                 : 1 h 20 min
  11. Bit rate                                 : 13.4 Mb/s
  12. Width                                    : 1 920 pixels
  13. Height                                   : 1 080 pixels
  14. Display aspect ratio                     : 16:9
  15. Frame rate mode                          : Constant
  16. Frame rate                               : 23.976 (24000/1001/189150) FPS
  17. Color space                              : YUV
  18. Chroma subsampling                       : 4:2:0
  19. Bit depth                                : 8 bits
  20. Scan type                                : Progressive
  21. Bits/(Pixel*Frame)                       : 0.270
  22. Stream size                              : 7.59 GiB (98%)
  23. Language                                 : English
  24. Default                                  : Yes
  25. Forced                                   : No
  26. Color range                              : Limited
  27. Color primaries                          : BT.709
  28. Transfer characteristics                 : BT.709
  29. Matrix coefficients                      : BT.709
  30. Audio
  31. ID                                       : 2
  32. Format                                   : E-AC-3
  33. Format/Info                              : Enhanced AC-3
  34. Commercial name                          : Dolby Digital Plus
  35. Codec ID                                 : A_EAC3
  36. Duration                                 : 1 h 20 min
  37. Bit rate mode                            : Constant
  38. Bit rate                                 : 224 kb/s
  39. Channel(s)                               : 2 channels
  40. Channel layout                           : L R
  41. Sampling rate                            : 48.0 kHz
  42. Frame rate                               : 31.250 FPS (1536 SPF)
  43. Compression mode                         : Lossy
  44. Stream size                              : 129 MiB (2%)
  45. Language                                 : English
  46. Service kind                             : Complete Main
  47. Default                                  : Yes
  48. Forced                                   : No
  49. Text
  50. ID                                       : 3
  51. Format                                   : UTF-8
  52. Codec ID                                 : S_TEXT/UTF8
  53. Codec ID/Info                            : UTF-8 Plain Text
  54. Duration                                 : 1 h 17 min
  55. Bit rate                                 : 62 b/s
  56. Count of elements                        : 1244
  57. Stream size                              : 35.5 KiB (0%)
  58. Language                                 : English
  59. Default                                  : Yes
  60. Forced                                   : No
复制代码






                                       
                                       

                                       
                                       
                                       




回复

使用道具 举报

懒得打字嘛,点击右侧快捷回复 【右侧内容,后台自定义】
您需要登录后才可以回帖 登录 | 立即加入

本版积分规则

Archiver|小黑屋| 蓝光电影网 |网站地图

Copyright © 2021 Comsenz Inc. Powered by 蓝光电影网

蓝光电影网

本站内容由用户自主分享和转载自互联网,转载目的在于传递更多信息,并不代表本网赞同其观点和对其真实性负责。

如有侵权、违反国家法律政策行为,请联系我们,我们会第一时间及时清除和处理!

举报反馈邮箱:[email protected]

快速回复 返回顶部 返回列表