找回密码

蓝光电影网

查看: 32|回复: 0

[剧情] 超凡神树 Charisma.1999.JAPANESE.1080p.AMZN.WEBRip.DDP2.0.x264-NOGRP 10.40GB

[复制链接]
蓝光币
519
发表于 2021-8-20 01:19:16 | 显示全部楼层 |阅读模式


◎译  名 超凡神树/Charisma
◎片  名 カリスマ
◎年  代 1999
◎产  地 日本
◎类  别 剧情
◎语  言 日语
◎上映日期 1999-05-17(戛纳电影节) / 2000-02-26(日本)
◎IMDb评分  6.9/10 from 1479 users
◎IMDb链接  https://www.imdb.com/title/tt0201517/
◎豆瓣评分 7.5/10 from 483 users
◎豆瓣链接 https://movie.douban.com/subject/1297900/
◎片  长 103分钟
◎导  演 黑泽清 Kiyoshi Kurosawa
◎编  剧 黑泽清 Kiyoshi Kurosawa
◎主  演 役所广司 K?ji Yakusho
       池内博之 Hiroyuki Ikeuchi
       风吹淳 Jun Fubuki
       洞口依子 Yoriko Douguchi
       大杉涟 Ren Ohsugi
       松重丰 Yutaka Matsushige
       田中要次 Y?ji Tanaka
◎标  签 黑泽清 | 日本 | 日本电影 | 1999 | 役所广司 | 1990s | 剧情 | 黒沢清
◎简  介


  资深警官薮池五郎(役所広司 饰)在面临一路绑架案时处置不妥,致使绑匪和作为人质的议员双双中弹身亡。在此以后,他被带领责令休整。绑匪身上留有“规复天下法例”的奥秘语句,薮池对此颇感猎奇,因而操纵假期来到了绑匪曾出没的森林。
  
  这座山曾长满茂盛的山毛榉树,但随着一颗知名树的到来,其周边的花卉树木以难以置信的速度敏捷灭亡。这棵树能从根部排泄毒液,其他的动物无一能逃走其魔掌。薮池在此碰见了对这棵树奉若神明的青年桐山直人(池内博之 饰),桐山深信“强者保存”的理论,为此不惜和执意砍伐神树的森林保护员中曾根(大杉漣 饰)展开匹敌。另一方面,动物学专家神保美津子(風吹ジュン 饰)和她的妹妹千鹤(洞口依子 饰)对神树的处置又各有各的定见。原本只是心存猎奇的薮池,不知不觉卷入这起奇异的事务中……
  
  本片荣获2000年日本电影专业大奖最好影片奖。
  1. Video
  2. ID                                       : 1
  3. Format                                   : AVC
  4. Format/Info                              : Advanced Video Codec
  5. Format profile                           : [email protected]
  6. Format settings                          : CABAC / 4 Ref Frames
  7. Format settings, CABAC                   : Yes
  8. Format settings, Reference frames        : 4 frames
  9. Codec ID                                 : V_MPEG4/ISO/AVC
  10. Duration                                 : 1 h 43 min
  11. Bit rate                                 : 14.1 Mb/s
  12. Width                                    : 1 920 pixels
  13. Height                                   : 1 040 pixels
  14. Display aspect ratio                     : 1.85:1
  15. Frame rate mode                          : Constant
  16. Frame rate                               : 23.976 (24000/1001/189150) FPS
  17. Color space                              : YUV
  18. Chroma subsampling                       : 4:2:0
  19. Bit depth                                : 8 bits
  20. Scan type                                : Progressive
  21. Bits/(Pixel*Frame)                       : 0.295
  22. Stream size                              : 10.2 GiB (98%)
  23. Language                                 : Japanese
  24. Default                                  : Yes
  25. Forced                                   : No
  26. Color range                              : Limited
  27. Color primaries                          : BT.709
  28. Transfer characteristics                 : BT.709
  29. Matrix coefficients                      : BT.709
  30. Audio
  31. ID                                       : 2
  32. Format                                   : E-AC-3
  33. Format/Info                              : Enhanced AC-3
  34. Commercial name                          : Dolby Digital Plus
  35. Codec ID                                 : A_EAC3
  36. Duration                                 : 1 h 43 min
  37. Bit rate mode                            : Constant
  38. Bit rate                                 : 224 kb/s
  39. Channel(s)                               : 2 channels
  40. Channel layout                           : L R
  41. Sampling rate                            : 48.0 kHz
  42. Frame rate                               : 31.250 FPS (1536 SPF)
  43. Compression mode                         : Lossy
  44. Stream size                              : 166 MiB (2%)
  45. Language                                 : Japanese
  46. Service kind                             : Complete Main
  47. Default                                  : Yes
  48. Forced                                   : No
  49. Text
  50. ID                                       : 3
  51. Format                                   : UTF-8
  52. Codec ID                                 : S_TEXT/UTF8
  53. Codec ID/Info                            : UTF-8 Plain Text
  54. Duration                                 : 1 h 43 min
  55. Bit rate                                 : 23 b/s
  56. Count of elements                        : 670
  57. Stream size                              : 17.5 KiB (0%)
  58. Language                                 : English
  59. Default                                  : Yes
  60. Forced                                   : No
复制代码






                                       
                                       

                                       
                                       
                                       




回复

使用道具 举报

懒得打字嘛,点击右侧快捷回复 【右侧内容,后台自定义】
您需要登录后才可以回帖 登录 | 立即加入

本版积分规则

Archiver|小黑屋| 蓝光电影网 |网站地图

Copyright © 2021 Comsenz Inc. Powered by 蓝光电影网

蓝光电影网

本站内容由用户自主分享和转载自互联网,转载目的在于传递更多信息,并不代表本网赞同其观点和对其真实性负责。

如有侵权、违反国家法律政策行为,请联系我们,我们会第一时间及时清除和处理!

举报反馈邮箱:[email protected]

快速回复 返回顶部 返回列表