找回密码

蓝光电影网

查看: 64|回复: 0

[剧情] 明天是另一天 Tomorrows.a.New.Day.2019.ITALIAN.1080p.WEBRip.DD5.1.x264-NOGRP 5.46GB

[复制链接]
蓝光币
515
发表于 2021-8-20 01:19:24 | 显示全部楼层 |阅读模式


◎译  名 明天是另一天
◎片  名 Domani è un altro giorno
◎年  代 2019
◎产  地 意大利
◎类  别 剧情 / 笑剧
◎语  言 意大利语
◎上映日期 2019-02-28(意大利)
◎IMDb评分  6.3/10 from 582 users
◎IMDb链接  https://www.imdb.com/title/tt8664050/
◎豆瓣评分 /10 from 0 users
◎豆瓣链接 https://movie.douban.com/subject/34430895/
◎片  长 100分钟
◎导  演 西蒙尼·斯帕达 Simone Spada
◎编  剧 西斯科·盖伊 Cesc Gay / 托马斯·阿瑞盖 Tomàs Aragay / Luca Vendruscolo
◎主  演 瓦莱里奥·马斯坦德雷亚 Valerio Mastandrea
       马可·贾利尼 Marco Giallini
       杰西卡·塞西 Jessica Cressy
       芭芭拉·朗奇 Barbara Ronchi
       彼得罗·拉古萨 Pietro Ragusa
       法布里齐亚·萨基 Fabrizia Sacchi
       彼得·德·席尔瓦 Pietro De Silva
       雷纳托·斯卡帕 Renato Scarpa
       亚历山德拉·卡里略 Alessandra Carrillo
       安娜·费泽蒂 Anna Ferzetti
◎标  签 意大利电影 | Italiano | 翻拍 | 意大利 | —2019
◎简  介


  The Italian remake of Truman (2015). Giuliano and Tommaso have been friends for over thirty years and now the four most difficult days of their friendship await them.
◎获奖情况
  第65届意大利大卫奖 ?(2020)
  最好女配角(提名) 安娜·费泽蒂
  1. Video
  2. ID                                       : 1
  3. Format                                   : AVC
  4. Format/Info                              : Advanced Video Codec
  5. Format profile                           : [email protected]
  6. Format settings                          : CABAC / 2 Ref Frames
  7. Format settings, CABAC                   : Yes
  8. Format settings, Reference frames        : 2 frames
  9. Codec ID                                 : V_MPEG4/ISO/AVC
  10. Duration                                 : 1 h 40 min
  11. Bit rate                                 : 7 426 kb/s
  12. Width                                    : 1 920 pixels
  13. Height                                   : 1 080 pixels
  14. Display aspect ratio                     : 16:9
  15. Frame rate mode                          : Constant
  16. Frame rate                               : 25.000 FPS
  17. Color space                              : YUV
  18. Chroma subsampling                       : 4:2:0
  19. Bit depth                                : 8 bits
  20. Scan type                                : Progressive
  21. Bits/(Pixel*Frame)                       : 0.143
  22. Stream size                              : 5.23 GiB (96%)
  23. Language                                 : Italian
  24. Default                                  : No
  25. Forced                                   : No
  26. Audio
  27. ID                                       : 2
  28. Format                                   : AC-3
  29. Format/Info                              : Audio Coding 3
  30. Commercial name                          : Dolby Digital
  31. Codec ID                                 : A_AC3
  32. Duration                                 : 1 h 40 min
  33. Bit rate mode                            : Constant
  34. Bit rate                                 : 320 kb/s
  35. Channel(s)                               : 6 channels
  36. Channel layout                           : L R C LFE Ls Rs
  37. Sampling rate                            : 48.0 kHz
  38. Frame rate                               : 31.250 FPS (1536 SPF)
  39. Compression mode                         : Lossy
  40. Stream size                              : 231 MiB (4%)
  41. Language                                 : Italian
  42. Service kind                             : Complete Main
  43. Default                                  : Yes
  44. Forced                                   : No
  45. Text
  46. ID                                       : 3
  47. Format                                   : UTF-8
  48. Codec ID                                 : S_TEXT/UTF8
  49. Codec ID/Info                            : UTF-8 Plain Text
  50. Duration                                 : 1 h 36 min
  51. Bit rate                                 : 52 b/s
  52. Count of elements                        : 1188
  53. Stream size                              : 37.5 KiB (0%)
  54. Language                                 : English
  55. Default                                  : Yes
  56. Forced                                   : No
复制代码






                                       
                                       

                                       
                                       
                                       




回复

使用道具 举报

懒得打字嘛,点击右侧快捷回复 【右侧内容,后台自定义】
您需要登录后才可以回帖 登录 | 立即加入

本版积分规则

Archiver|小黑屋| 蓝光电影网 |网站地图

Copyright © 2021 Comsenz Inc. Powered by 蓝光电影网

蓝光电影网

本站内容由用户自主分享和转载自互联网,转载目的在于传递更多信息,并不代表本网赞同其观点和对其真实性负责。

如有侵权、违反国家法律政策行为,请联系我们,我们会第一时间及时清除和处理!

举报反馈邮箱:[email protected]

快速回复 返回顶部 返回列表