找回密码

蓝光电影网

查看: 47|回复: 0

[剧情] 迪克·约翰逊已死 Dick.Johnson.is.Dead.2020.1080p.NF.WEBRip.DDP5.1.x264-PTP 3.59GB

[复制链接]
蓝光币
515
发表于 2021-8-20 01:19:30 | 显示全部楼层 |阅读模式


◎译  名 迪克·约翰逊已死
◎片  名 Dick Johnson Is Dead
◎年  代 2020
◎产  地 美国
◎类  别 剧情 / 记载片
◎语  言 英语
◎上映日期 2020-01-25(圣丹斯电影节) / 2020-10-02(美国)
◎IMDb评分  6.8/10 from 60 users
◎IMDb链接  https://www.imdb.com/title/tt11394180/
◎豆瓣评分 /10 from 0 users
◎豆瓣链接 https://movie.douban.com/subject/34909075/
◎导  演 克斯汀·约翰逊 Kirsten Johnson
◎编  剧 内尔斯·班格特 Nels Bangerter / 克斯汀·约翰逊 Kirsten Johnson
◎主  演 克斯汀·约翰逊 Kirsten Johnson
◎标  签 记载片 | 2020 | 美国电影 | PA-SundanceA记载片比赛/美国记载片 | PA-SundanceA2记载片评审团出格奖 | FILM | Documentary
◎简  介


  迪克·约翰逊是美国传奇赛车手,这部记载片是由他的女儿拍摄的。这部记载片在叙事上布满了创意,迪克·约翰逊在片中屡次死去又屡次复活,既让人失笑又让人流泪,对生与死的话题做出了深入的思考。
  1. Video
  2. ID                                       : 1
  3. Format                                   : AVC
  4. Format/Info                              : Advanced Video Codec
  5. Format profile                           : [email protected]
  6. Format settings                          : CABAC / 3 Ref Frames
  7. Format settings, CABAC                   : Yes
  8. Format settings, Reference frames        : 3 frames
  9. Codec ID                                 : V_MPEG4/ISO/AVC
  10. Duration                                 : 1 h 30 min
  11. Bit rate mode                            : Variable
  12. Bit rate                                 : 5 110 kb/s
  13. Maximum bit rate                         : 7 665 kb/s
  14. Width                                    : 1 920 pixels
  15. Height                                   : 1 080 pixels
  16. Display aspect ratio                     : 16:9
  17. Frame rate mode                          : Constant
  18. Frame rate                               : 23.976 (24000/1001/189150) FPS
  19. Color space                              : YUV
  20. Chroma subsampling                       : 4:2:0
  21. Bit depth                                : 8 bits
  22. Scan type                                : Progressive
  23. Bits/(Pixel*Frame)                       : 0.103
  24. Stream size                              : 3.18 GiB (89%)
  25. Writing library                          : x264 core 148 r2722 1b0121b
  26. Encoding settings                        : cabac=1 / ref=3 / deblock=1:0:0 / analyse=0x1:0x111 / me=umh / subme=10 / psy=1 / psy_rd=1.00:0.00 / mixed_ref=1 / me_range=24 / chroma_me=1 / trellis=2 / 8x8dct=0 / cqm=0 / deadzone=21,11 / fast_pskip=1 / chroma_qp_offset=-2 / threads=8 / lookahead_threads=1 / sliced_threads=0 / nr=0 / decimate=1 / interlaced=0 / bluray_compat=0 / stitchable=1 / constrained_intra=0 / bframes=2 / b_pyramid=0 / b_adapt=2 / b_bias=0 / direct=3 / weightb=1 / open_gop=0 / weightp=2 / keyint=250 / keyint_min=23 / scenecut=0 / intra_refresh=0 / rc_lookahead=48 / rc=2pass / mbtree=1 / bitrate=5110 / ratetol=1.0 / qcomp=0.50 / qpmin=6 / qpmax=51 / qpstep=4 / cplxblur=20.0 / qblur=0.5 / vbv_maxrate=7665 / vbv_bufsize=10220 / nal_hrd=vbr / filler=0 / ip_ratio=1.40 / aq=1:1.00
  27. Default                                  : Yes
  28. Forced                                   : No
  29. Audio
  30. ID                                       : 2
  31. Format                                   : E-AC-3
  32. Format/Info                              : Enhanced AC-3
  33. Commercial name                          : Dolby Digital Plus
  34. Codec ID                                 : A_EAC3
  35. Duration                                 : 1 h 30 min
  36. Bit rate mode                            : Constant
  37. Bit rate                                 : 640 kb/s
  38. Channel(s)                               : 6 channels
  39. Channel layout                           : L R C LFE Ls Rs
  40. Sampling rate                            : 48.0 kHz
  41. Frame rate                               : 31.250 FPS (1536 SPF)
  42. Compression mode                         : Lossy
  43. Stream size                              : 412 MiB (11%)
  44. Language                                 : English
  45. Service kind                             : Complete Main
  46. Default                                  : Yes
  47. Forced                                   : No
  48. Text #1
  49. ID                                       : 3
  50. Format                                   : UTF-8
  51. Codec ID                                 : S_TEXT/UTF8
  52. Codec ID/Info                            : UTF-8 Plain Text
  53. Duration                                 : 54 min 26 s
  54. Bit rate                                 : 0 b/s
  55. Count of elements                        : 7
  56. Stream size                              : 165 Bytes (0%)
  57. Title                                    : Forced
  58. Language                                 : English
  59. Default                                  : Yes
  60. Forced                                   : Yes
  61. Text #2
  62. ID                                       : 4
  63. Format                                   : UTF-8
  64. Codec ID                                 : S_TEXT/UTF8
  65. Codec ID/Info                            : UTF-8 Plain Text
  66. Duration                                 : 1 h 25 min
  67. Bit rate                                 : 82 b/s
  68. Count of elements                        : 1279
  69. Stream size                              : 51.7 KiB (0%)
  70. Title                                    : SDH
  71. Language                                 : English
  72. Default                                  : No
  73. Forced                                   : No
  74. Text #3
  75. ID                                       : 5
  76. Format                                   : UTF-8
  77. Codec ID                                 : S_TEXT/UTF8
  78. Codec ID/Info                            : UTF-8 Plain Text
  79. Duration                                 : 1 h 29 min
  80. Bit rate                                 : 102 b/s
  81. Count of elements                        : 1243
  82. Stream size                              : 67.0 KiB (0%)
  83. Language                                 : Arabic
  84. Default                                  : No
  85. Forced                                   : No
  86. Text #4
  87. ID                                       : 6
  88. Format                                   : UTF-8
  89. Codec ID                                 : S_TEXT/UTF8
  90. Codec ID/Info                            : UTF-8 Plain Text
  91. Duration                                 : 1 h 29 min
  92. Bit rate                                 : 56 b/s
  93. Count of elements                        : 1240
  94. Stream size                              : 37.0 KiB (0%)
  95. Language                                 : Czech
  96. Default                                  : No
  97. Forced                                   : No
  98. Text #5
  99. ID                                       : 7
  100. Format                                   : UTF-8
  101. Codec ID                                 : S_TEXT/UTF8
  102. Codec ID/Info                            : UTF-8 Plain Text
  103. Duration                                 : 1 h 29 min
  104. Bit rate                                 : 56 b/s
  105. Count of elements                        : 1229
  106. Stream size                              : 36.7 KiB (0%)
  107. Language                                 : Danish
  108. Default                                  : No
  109. Forced                                   : No
  110. Text #6
  111. ID                                       : 8
  112. Format                                   : UTF-8
  113. Codec ID                                 : S_TEXT/UTF8
  114. Codec ID/Info                            : UTF-8 Plain Text
  115. Duration                                 : 1 h 29 min
  116. Bit rate                                 : 58 b/s
  117. Count of elements                        : 1229
  118. Stream size                              : 37.9 KiB (0%)
  119. Language                                 : German
  120. Default                                  : No
  121. Forced                                   : No
  122. Text #7
  123. ID                                       : 9
  124. Format                                   : UTF-8
  125. Codec ID                                 : S_TEXT/UTF8
  126. Codec ID/Info                            : UTF-8 Plain Text
  127. Duration                                 : 1 h 29 min
  128. Bit rate                                 : 95 b/s
  129. Count of elements                        : 1218
  130. Stream size                              : 62.4 KiB (0%)
  131. Language                                 : Greek
  132. Default                                  : No
  133. Forced                                   : No
  134. Text #8
  135. ID                                       : 10
  136. Format                                   : UTF-8
  137. Codec ID                                 : S_TEXT/UTF8
  138. Codec ID/Info                            : UTF-8 Plain Text
  139. Duration                                 : 1 h 29 min
  140. Bit rate                                 : 55 b/s
  141. Count of elements                        : 1239
  142. Stream size                              : 36.4 KiB (0%)
  143. Title                                    : Latin American
  144. Language                                 : Spanish
  145. Default                                  : No
  146. Forced                                   : No
  147. Text #9
  148. ID                                       : 11
  149. Format                                   : UTF-8
  150. Codec ID                                 : S_TEXT/UTF8
  151. Codec ID/Info                            : UTF-8 Plain Text
  152. Duration                                 : 1 h 29 min
  153. Bit rate                                 : 52 b/s
  154. Count of elements                        : 1236
  155. Stream size                              : 34.4 KiB (0%)
  156. Title                                    : European
  157. Language                                 : Spanish
  158. Default                                  : No
  159. Forced                                   : No
  160. Text #10
  161. ID                                       : 12
  162. Format                                   : UTF-8
  163. Codec ID                                 : S_TEXT/UTF8
  164. Codec ID/Info                            : UTF-8 Plain Text
  165. Duration                                 : 1 h 29 min
  166. Bit rate                                 : 51 b/s
  167. Count of elements                        : 1231
  168. Stream size                              : 33.4 KiB (0%)
  169. Language                                 : Finnish
  170. Default                                  : No
  171. Forced                                   : No
  172. Text #11
  173. ID                                       : 13
  174. Format                                   : UTF-8
  175. Codec ID                                 : S_TEXT/UTF8
  176. Codec ID/Info                            : UTF-8 Plain Text
  177. Duration                                 : 1 h 29 min
  178. Bit rate                                 : 57 b/s
  179. Count of elements                        : 1223
  180. Stream size                              : 37.6 KiB (0%)
  181. Language                                 : French
  182. Default                                  : No
  183. Forced                                   : No
  184. Text #12
  185. ID                                       : 14
  186. Format                                   : UTF-8
  187. Codec ID                                 : S_TEXT/UTF8
  188. Codec ID/Info                            : UTF-8 Plain Text
  189. Duration                                 : 1 h 29 min
  190. Bit rate                                 : 85 b/s
  191. Count of elements                        : 1244
  192. Stream size                              : 55.7 KiB (0%)
  193. Language                                 : Hebrew
  194. Default                                  : No
  195. Forced                                   : No
  196. Text #13
  197. ID                                       : 15
  198. Format                                   : UTF-8
  199. Codec ID                                 : S_TEXT/UTF8
  200. Codec ID/Info                            : UTF-8 Plain Text
  201. Duration                                 : 1 h 25 min
  202. Bit rate                                 : 54 b/s
  203. Count of elements                        : 1239
  204. Stream size                              : 34.3 KiB (0%)
  205. Language                                 : Croatian
  206. Default                                  : No
  207. Forced                                   : No
  208. Text #14
  209. ID                                       : 16
  210. Format                                   : UTF-8
  211. Codec ID                                 : S_TEXT/UTF8
  212. Codec ID/Info                            : UTF-8 Plain Text
  213. Duration                                 : 1 h 29 min
  214. Bit rate                                 : 59 b/s
  215. Count of elements                        : 1240
  216. Stream size                              : 38.8 KiB (0%)
  217. Language                                 : Hungarian
  218. Default                                  : No
  219. Forced                                   : No
  220. Text #15
  221. ID                                       : 17
  222. Format                                   : UTF-8
  223. Codec ID                                 : S_TEXT/UTF8
  224. Codec ID/Info                            : UTF-8 Plain Text
  225. Duration                                 : 1 h 29 min
  226. Bit rate                                 : 55 b/s
  227. Count of elements                        : 1236
  228. Stream size                              : 36.1 KiB (0%)
  229. Language                                 : Indonesian
  230. Default                                  : No
  231. Forced                                   : No
  232. Text #16
  233. ID                                       : 18
  234. Format                                   : UTF-8
  235. Codec ID                                 : S_TEXT/UTF8
  236. Codec ID/Info                            : UTF-8 Plain Text
  237. Duration                                 : 1 h 29 min
  238. Bit rate                                 : 57 b/s
  239. Count of elements                        : 1233
  240. Stream size                              : 37.2 KiB (0%)
  241. Language                                 : Italian
  242. Default                                  : No
  243. Forced                                   : No
  244. Text #17
  245. ID                                       : 19
  246. Format                                   : UTF-8
  247. Codec ID                                 : S_TEXT/UTF8
  248. Codec ID/Info                            : UTF-8 Plain Text
  249. Duration                                 : 1 h 29 min
  250. Bit rate                                 : 47 b/s
  251. Count of elements                        : 966
  252. Stream size                              : 30.9 KiB (0%)
  253. Language                                 : Japanese
  254. Default                                  : No
  255. Forced                                   : No
  256. Text #18
  257. ID                                       : 20
  258. Format                                   : UTF-8
  259. Codec ID                                 : S_TEXT/UTF8
  260. Codec ID/Info                            : UTF-8 Plain Text
  261. Duration                                 : 1 h 29 min
  262. Bit rate                                 : 67 b/s
  263. Count of elements                        : 1238
  264. Stream size                              : 44.0 KiB (0%)
  265. Language                                 : Korean
  266. Default                                  : No
  267. Forced                                   : No
  268. Text #19
  269. ID                                       : 21
  270. Format                                   : UTF-8
  271. Codec ID                                 : S_TEXT/UTF8
  272. Codec ID/Info                            : UTF-8 Plain Text
  273. Duration                                 : 1 h 29 min
  274. Bit rate                                 : 52 b/s
  275. Count of elements                        : 1236
  276. Stream size                              : 34.5 KiB (0%)
  277. Language                                 : Malay
  278. Default                                  : No
  279. Forced                                   : No
  280. Text #20
  281. ID                                       : 22
  282. Format                                   : UTF-8
  283. Codec ID                                 : S_TEXT/UTF8
  284. Codec ID/Info                            : UTF-8 Plain Text
  285. Duration                                 : 1 h 29 min
  286. Bit rate                                 : 54 b/s
  287. Count of elements                        : 1235
  288. Stream size                              : 35.6 KiB (0%)
  289. Language                                 : Norwegian Bokmal
  290. Default                                  : No
  291. Forced                                   : No
  292. Text #21
  293. ID                                       : 23
  294. Format                                   : UTF-8
  295. Codec ID                                 : S_TEXT/UTF8
  296. Codec ID/Info                            : UTF-8 Plain Text
  297. Duration                                 : 1 h 29 min
  298. Bit rate                                 : 51 b/s
  299. Count of elements                        : 1176
  300. Stream size                              : 33.3 KiB (0%)
  301. Language                                 : Dutch
  302. Default                                  : No
  303. Forced                                   : No
  304. Text #22
  305. ID                                       : 24
  306. Format                                   : UTF-8
  307. Codec ID                                 : S_TEXT/UTF8
  308. Codec ID/Info                            : UTF-8 Plain Text
  309. Duration                                 : 1 h 29 min
  310. Bit rate                                 : 50 b/s
  311. Count of elements                        : 1218
  312. Stream size                              : 33.2 KiB (0%)
  313. Language                                 : Polish
  314. Default                                  : No
  315. Forced                                   : No
  316. Text #23
  317. ID                                       : 25
  318. Format                                   : UTF-8
  319. Codec ID                                 : S_TEXT/UTF8
  320. Codec ID/Info                            : UTF-8 Plain Text
  321. Duration                                 : 1 h 29 min
  322. Bit rate                                 : 57 b/s
  323. Count of elements                        : 1231
  324. Stream size                              : 37.3 KiB (0%)
  325. Title                                    : European
  326. Language                                 : Portuguese
  327. Default                                  : No
  328. Forced                                   : No
  329. Text #24
  330. ID                                       : 26
  331. Format                                   : UTF-8
  332. Codec ID                                 : S_TEXT/UTF8
  333. Codec ID/Info                            : UTF-8 Plain Text
  334. Duration                                 : 1 h 29 min
  335. Bit rate                                 : 53 b/s
  336. Count of elements                        : 1249
  337. Stream size                              : 34.8 KiB (0%)
  338. Title                                    : Brazilian
  339. Language                                 : Portuguese
  340. Default                                  : No
  341. Forced                                   : No
  342. Text #25
  343. ID                                       : 27
  344. Format                                   : UTF-8
  345. Codec ID                                 : S_TEXT/UTF8
  346. Codec ID/Info                            : UTF-8 Plain Text
  347. Duration                                 : 1 h 29 min
  348. Bit rate                                 : 65 b/s
  349. Count of elements                        : 1235
  350. Stream size                              : 42.7 KiB (0%)
  351. Language                                 : Romanian
  352. Default                                  : No
  353. Forced                                   : No
  354. Text #26
  355. ID                                       : 28
  356. Format                                   : UTF-8
  357. Codec ID                                 : S_TEXT/UTF8
  358. Codec ID/Info                            : UTF-8 Plain Text
  359. Duration                                 : 1 h 29 min
  360. Bit rate                                 : 90 b/s
  361. Count of elements                        : 1242
  362. Stream size                              : 59.4 KiB (0%)
  363. Language                                 : Russian
  364. Default                                  : No
  365. Forced                                   : No
  366. Text #27
  367. ID                                       : 29
  368. Format                                   : UTF-8
  369. Codec ID                                 : S_TEXT/UTF8
  370. Codec ID/Info                            : UTF-8 Plain Text
  371. Duration                                 : 1 h 29 min
  372. Bit rate                                 : 58 b/s
  373. Count of elements                        : 1234
  374. Stream size                              : 38.2 KiB (0%)
  375. Language                                 : Swedish
  376. Default                                  : No
  377. Forced                                   : No
  378. Text #28
  379. ID                                       : 30
  380. Format                                   : UTF-8
  381. Codec ID                                 : S_TEXT/UTF8
  382. Codec ID/Info                            : UTF-8 Plain Text
  383. Duration                                 : 1 h 29 min
  384. Bit rate                                 : 159 b/s
  385. Count of elements                        : 1244
  386. Stream size                              : 104 KiB (0%)
  387. Language                                 : Thai
  388. Default                                  : No
  389. Forced                                   : No
  390. Text #29
  391. ID                                       : 31
  392. Format                                   : UTF-8
  393. Codec ID                                 : S_TEXT/UTF8
  394. Codec ID/Info                            : UTF-8 Plain Text
  395. Duration                                 : 1 h 29 min
  396. Bit rate                                 : 56 b/s
  397. Count of elements                        : 1232
  398. Stream size                              : 37.1 KiB (0%)
  399. Language                                 : Turkish
  400. Default                                  : No
  401. Forced                                   : No
  402. Text #30
  403. ID                                       : 32
  404. Format                                   : UTF-8
  405. Codec ID                                 : S_TEXT/UTF8
  406. Codec ID/Info                            : UTF-8 Plain Text
  407. Duration                                 : 1 h 29 min
  408. Bit rate                                 : 77 b/s
  409. Count of elements                        : 1237
  410. Stream size                              : 50.9 KiB (0%)
  411. Language                                 : Vietnamese
  412. Default                                  : No
  413. Forced                                   : No
  414. Text #31
  415. ID                                       : 33
  416. Format                                   : UTF-8
  417. Codec ID                                 : S_TEXT/UTF8
  418. Codec ID/Info                            : UTF-8 Plain Text
  419. Duration                                 : 1 h 29 min
  420. Bit rate                                 : 65 b/s
  421. Count of elements                        : 1244
  422. Stream size                              : 42.8 KiB (0%)
  423. Title                                    : Simplified
  424. Language                                 : Chinese
  425. Default                                  : No
  426. Forced                                   : No
  427. Text #32
  428. ID                                       : 34
  429. Format                                   : UTF-8
  430. Codec ID                                 : S_TEXT/UTF8
  431. Codec ID/Info                            : UTF-8 Plain Text
  432. Duration                                 : 1 h 29 min
  433. Bit rate                                 : 59 b/s
  434. Count of elements                        : 1244
  435. Stream size                              : 38.5 KiB (0%)
  436. Title                                    : Traditional
  437. Language                                 : Chinese
  438. Default                                  : No
  439. Forced                                   : No
复制代码





                                       
                                       

                                       
                                       
                                       




回复

使用道具 举报

懒得打字嘛,点击右侧快捷回复 【右侧内容,后台自定义】
您需要登录后才可以回帖 登录 | 立即加入

本版积分规则

Archiver|小黑屋| 蓝光电影网 |网站地图

Copyright © 2021 Comsenz Inc. Powered by 蓝光电影网

蓝光电影网

本站内容由用户自主分享和转载自互联网,转载目的在于传递更多信息,并不代表本网赞同其观点和对其真实性负责。

如有侵权、违反国家法律政策行为,请联系我们,我们会第一时间及时清除和处理!

举报反馈邮箱:[email protected]

快速回复 返回顶部 返回列表