找回密码

蓝光电影网

查看: 54|回复: 0

[剧情] 异色国度 Oloture.2019.1080p.NF.WEBRip.DDP5.1.x264-CM 6.02GB

[复制链接]
蓝光币
511
发表于 2021-8-20 01:19:43 | 显示全部楼层 |阅读模式


◎译  名 异色国家
◎片  名 òlòtūré
◎年  代 2019
◎产  地 尼日利亚
◎类  别 剧情
◎上映日期 2019-10-31(尼日利亚)
◎IMDb链接  https://www.imdb.com/title/tt9725830/
◎豆瓣评分 /10 from 0 users
◎豆瓣链接 https://movie.douban.com/subject/33412293/
◎片  长 106分钟
◎标  签 己亥 | Kenneth_Gyang | DVD2019
◎简  介


  Set in Nigeria, Oloture is the story of a young, naive Nigerian journalist who goes undercover to expose the shady underworld of human trafficking. Unused to this brutal environment, crawling with ruthless traders and pimps, Oloture finds warmth and friendship with Blessing, Linda and Beauty, the prostitutes she lives with. However, she gets drawn into their lifestyle and finds it difficult to cope. In her quest to uncover the truth, she pays the ultimate price - one that takes her to the verge of no return.
  1. Video
  2. ID                                       : 1
  3. Format                                   : AVC
  4. Format/Info                              : Advanced Video Codec
  5. Format profile                           : [email protected]
  6. Format settings                          : CABAC / 3 Ref Frames
  7. Format settings, CABAC                   : Yes
  8. Format settings, Reference frames        : 3 frames
  9. Codec ID                                 : V_MPEG4/ISO/AVC
  10. Duration                                 : 1 h 46 min
  11. Bit rate mode                            : Variable
  12. Bit rate                                 : 7 500 kb/s
  13. Maximum bit rate                         : 11.2 Mb/s
  14. Width                                    : 1 920 pixels
  15. Height                                   : 1 080 pixels
  16. Display aspect ratio                     : 16:9
  17. Frame rate mode                          : Constant
  18. Frame rate                               : 23.976 (24000/1001/189150) FPS
  19. Color space                              : YUV
  20. Chroma subsampling                       : 4:2:0
  21. Bit depth                                : 8 bits
  22. Scan type                                : Progressive
  23. Bits/(Pixel*Frame)                       : 0.151
  24. Stream size                              : 5.54 GiB (92%)
  25. Writing library                          : x264 core 148 r2722 1b0121b
  26. Encoding settings                        : cabac=1 / ref=3 / deblock=1:0:0 / analyse=0x1:0x111 / me=umh / subme=10 / psy=1 / psy_rd=1.00:0.00 / mixed_ref=1 / me_range=24 / chroma_me=1 / trellis=2 / 8x8dct=0 / cqm=0 / deadzone=21,11 / fast_pskip=1 / chroma_qp_offset=-2 / threads=6 / lookahead_threads=1 / sliced_threads=0 / nr=0 / decimate=1 / interlaced=0 / bluray_compat=0 / stitchable=1 / constrained_intra=0 / bframes=2 / b_pyramid=0 / b_adapt=2 / b_bias=0 / direct=3 / weightb=1 / open_gop=0 / weightp=2 / keyint=250 / keyint_min=23 / scenecut=0 / intra_refresh=0 / rc_lookahead=48 / rc=2pass / mbtree=1 / bitrate=7500 / ratetol=1.0 / qcomp=0.50 / qpmin=6 / qpmax=51 / qpstep=4 / cplxblur=20.0 / qblur=0.5 / vbv_maxrate=11250 / vbv_bufsize=15000 / nal_hrd=vbr / filler=0 / ip_ratio=1.40 / aq=1:1.00
  27. Default                                  : Yes
  28. Forced                                   : No
  29. Audio
  30. ID                                       : 2
  31. Format                                   : E-AC-3
  32. Format/Info                              : Enhanced AC-3
  33. Commercial name                          : Dolby Digital Plus
  34. Codec ID                                 : A_EAC3
  35. Duration                                 : 1 h 46 min
  36. Bit rate mode                            : Constant
  37. Bit rate                                 : 640 kb/s
  38. Channel(s)                               : 6 channels
  39. Channel layout                           : L R C LFE Ls Rs
  40. Sampling rate                            : 48.0 kHz
  41. Frame rate                               : 31.250 FPS (1536 SPF)
  42. Compression mode                         : Lossy
  43. Stream size                              : 489 MiB (8%)
  44. Title                                    : English
  45. Language                                 : English
  46. Service kind                             : Complete Main
  47. Default                                  : No
  48. Forced                                   : No
  49. Text #1
  50. ID                                       : 3
  51. Format                                   : UTF-8
  52. Codec ID                                 : S_TEXT/UTF8
  53. Codec ID/Info                            : UTF-8 Plain Text
  54. Duration                                 : 1 h 46 min
  55. Bit rate                                 : 64 b/s
  56. Count of elements                        : 991
  57. Stream size                              : 50.0 KiB (0%)
  58. Title                                    : Arabic
  59. Language                                 : Arabic
  60. Default                                  : No
  61. Forced                                   : No
  62. Text #2
  63. ID                                       : 4
  64. Format                                   : UTF-8
  65. Codec ID                                 : S_TEXT/UTF8
  66. Codec ID/Info                            : UTF-8 Plain Text
  67. Duration                                 : 1 h 46 min
  68. Bit rate                                 : 34 b/s
  69. Count of elements                        : 989
  70. Stream size                              : 27.1 KiB (0%)
  71. Title                                    : Brazilian Portuguese
  72. Language                                 : Portuguese
  73. Default                                  : No
  74. Forced                                   : No
  75. Text #3
  76. ID                                       : 5
  77. Format                                   : UTF-8
  78. Codec ID                                 : S_TEXT/UTF8
  79. Codec ID/Info                            : UTF-8 Plain Text
  80. Duration                                 : 1 h 46 min
  81. Bit rate                                 : 33 b/s
  82. Count of elements                        : 989
  83. Stream size                              : 26.1 KiB (0%)
  84. Title                                    : Czech
  85. Language                                 : Czech
  86. Default                                  : No
  87. Forced                                   : No
  88. Text #4
  89. ID                                       : 6
  90. Format                                   : UTF-8
  91. Codec ID                                 : S_TEXT/UTF8
  92. Codec ID/Info                            : UTF-8 Plain Text
  93. Duration                                 : 1 h 46 min
  94. Bit rate                                 : 33 b/s
  95. Count of elements                        : 989
  96. Stream size                              : 25.9 KiB (0%)
  97. Title                                    : Danish
  98. Language                                 : Danish
  99. Default                                  : No
  100. Forced                                   : No
  101. Text #5
  102. ID                                       : 7
  103. Format                                   : UTF-8
  104. Codec ID                                 : S_TEXT/UTF8
  105. Codec ID/Info                            : UTF-8 Plain Text
  106. Duration                                 : 1 h 46 min
  107. Bit rate                                 : 32 b/s
  108. Count of elements                        : 984
  109. Stream size                              : 25.7 KiB (0%)
  110. Title                                    : German
  111. Language                                 : German
  112. Default                                  : No
  113. Forced                                   : No
  114. Text #6
  115. ID                                       : 8
  116. Format                                   : UTF-8
  117. Codec ID                                 : S_TEXT/UTF8
  118. Codec ID/Info                            : UTF-8 Plain Text
  119. Duration                                 : 1 h 46 min
  120. Bit rate                                 : 59 b/s
  121. Count of elements                        : 987
  122. Stream size                              : 46.4 KiB (0%)
  123. Title                                    : Greek
  124. Language                                 : Greek
  125. Default                                  : No
  126. Forced                                   : No
  127. Text #7
  128. ID                                       : 9
  129. Format                                   : UTF-8
  130. Codec ID                                 : S_TEXT/UTF8
  131. Codec ID/Info                            : UTF-8 Plain Text
  132. Duration                                 : 1 h 45 min
  133. Bit rate                                 : 42 b/s
  134. Count of elements                        : 1057
  135. Stream size                              : 33.2 KiB (0%)
  136. Title                                    : English [CC]
  137. Language                                 : English
  138. Default                                  : No
  139. Forced                                   : No
  140. Text #8
  141. ID                                       : 10
  142. Format                                   : UTF-8
  143. Codec ID                                 : S_TEXT/UTF8
  144. Codec ID/Info                            : UTF-8 Plain Text
  145. Duration                                 : 1 h 39 min
  146. Bit rate                                 : 29 b/s
  147. Count of elements                        : 652
  148. Stream size                              : 21.8 KiB (0%)
  149. Title                                    : English [Forced]
  150. Language                                 : English
  151. Default                                  : No
  152. Forced                                   : Yes
  153. Text #9
  154. ID                                       : 11
  155. Format                                   : UTF-8
  156. Codec ID                                 : S_TEXT/UTF8
  157. Codec ID/Info                            : UTF-8 Plain Text
  158. Duration                                 : 1 h 39 min
  159. Bit rate                                 : 40 b/s
  160. Count of elements                        : 967
  161. Stream size                              : 29.7 KiB (0%)
  162. Title                                    : English
  163. Language                                 : English
  164. Default                                  : No
  165. Forced                                   : No
  166. Text #10
  167. ID                                       : 12
  168. Format                                   : UTF-8
  169. Codec ID                                 : S_TEXT/UTF8
  170. Codec ID/Info                            : UTF-8 Plain Text
  171. Duration                                 : 1 h 46 min
  172. Bit rate                                 : 34 b/s
  173. Count of elements                        : 989
  174. Stream size                              : 26.9 KiB (0%)
  175. Title                                    : European Spanish
  176. Language                                 : Spanish
  177. Default                                  : No
  178. Forced                                   : No
  179. Text #11
  180. ID                                       : 13
  181. Format                                   : UTF-8
  182. Codec ID                                 : S_TEXT/UTF8
  183. Codec ID/Info                            : UTF-8 Plain Text
  184. Duration                                 : 1 h 46 min
  185. Bit rate                                 : 32 b/s
  186. Count of elements                        : 989
  187. Stream size                              : 25.0 KiB (0%)
  188. Title                                    : Finnish
  189. Language                                 : Finnish
  190. Default                                  : No
  191. Forced                                   : No
  192. Text #12
  193. ID                                       : 14
  194. Format                                   : UTF-8
  195. Codec ID                                 : S_TEXT/UTF8
  196. Codec ID/Info                            : UTF-8 Plain Text
  197. Duration                                 : 1 h 46 min
  198. Bit rate                                 : 36 b/s
  199. Count of elements                        : 985
  200. Stream size                              : 28.0 KiB (0%)
  201. Title                                    : French
  202. Language                                 : French
  203. Default                                  : No
  204. Forced                                   : No
  205. Text #13
  206. ID                                       : 15
  207. Format                                   : UTF-8
  208. Codec ID                                 : S_TEXT/UTF8
  209. Codec ID/Info                            : UTF-8 Plain Text
  210. Duration                                 : 1 h 46 min
  211. Bit rate                                 : 54 b/s
  212. Count of elements                        : 991
  213. Stream size                              : 42.0 KiB (0%)
  214. Title                                    : Hebrew
  215. Language                                 : Hebrew
  216. Default                                  : No
  217. Forced                                   : No
  218. Text #14
  219. ID                                       : 16
  220. Format                                   : UTF-8
  221. Codec ID                                 : S_TEXT/UTF8
  222. Codec ID/Info                            : UTF-8 Plain Text
  223. Duration                                 : 1 h 46 min
  224. Bit rate                                 : 33 b/s
  225. Count of elements                        : 983
  226. Stream size                              : 25.7 KiB (0%)
  227. Title                                    : Croatian
  228. Language                                 : Croatian
  229. Default                                  : No
  230. Forced                                   : No
  231. Text #15
  232. ID                                       : 17
  233. Format                                   : UTF-8
  234. Codec ID                                 : S_TEXT/UTF8
  235. Codec ID/Info                            : UTF-8 Plain Text
  236. Duration                                 : 1 h 46 min
  237. Bit rate                                 : 34 b/s
  238. Count of elements                        : 988
  239. Stream size                              : 27.2 KiB (0%)
  240. Title                                    : Hungarian
  241. Language                                 : Hungarian
  242. Default                                  : No
  243. Forced                                   : No
  244. Text #16
  245. ID                                       : 18
  246. Format                                   : UTF-8
  247. Codec ID                                 : S_TEXT/UTF8
  248. Codec ID/Info                            : UTF-8 Plain Text
  249. Duration                                 : 1 h 46 min
  250. Bit rate                                 : 35 b/s
  251. Count of elements                        : 989
  252. Stream size                              : 27.8 KiB (0%)
  253. Title                                    : Indonesian
  254. Language                                 : Indonesian
  255. Default                                  : No
  256. Forced                                   : No
  257. Text #17
  258. ID                                       : 19
  259. Format                                   : UTF-8
  260. Codec ID                                 : S_TEXT/UTF8
  261. Codec ID/Info                            : UTF-8 Plain Text
  262. Duration                                 : 1 h 46 min
  263. Bit rate                                 : 34 b/s
  264. Count of elements                        : 990
  265. Stream size                              : 27.1 KiB (0%)
  266. Title                                    : Italian
  267. Language                                 : Italian
  268. Default                                  : No
  269. Forced                                   : No
  270. Text #18
  271. ID                                       : 20
  272. Format                                   : UTF-8
  273. Codec ID                                 : S_TEXT/UTF8
  274. Codec ID/Info                            : UTF-8 Plain Text
  275. Duration                                 : 1 h 46 min
  276. Bit rate                                 : 36 b/s
  277. Count of elements                        : 1078
  278. Stream size                              : 28.2 KiB (0%)
  279. Title                                    : Japanese
  280. Language                                 : Japanese
  281. Default                                  : No
  282. Forced                                   : No
  283. Text #19
  284. ID                                       : 21
  285. Format                                   : UTF-8
  286. Codec ID                                 : S_TEXT/UTF8
  287. Codec ID/Info                            : UTF-8 Plain Text
  288. Duration                                 : 1 h 46 min
  289. Bit rate                                 : 42 b/s
  290. Count of elements                        : 991
  291. Stream size                              : 33.1 KiB (0%)
  292. Title                                    : Korean
  293. Language                                 : Korean
  294. Default                                  : No
  295. Forced                                   : No
  296. Text #20
  297. ID                                       : 22
  298. Format                                   : UTF-8
  299. Codec ID                                 : S_TEXT/UTF8
  300. Codec ID/Info                            : UTF-8 Plain Text
  301. Duration                                 : 1 h 46 min
  302. Bit rate                                 : 34 b/s
  303. Count of elements                        : 990
  304. Stream size                              : 26.8 KiB (0%)
  305. Title                                    : Malay
  306. Language                                 : Malay
  307. Default                                  : No
  308. Forced                                   : No
  309. Text #21
  310. ID                                       : 23
  311. Format                                   : UTF-8
  312. Codec ID                                 : S_TEXT/UTF8
  313. Codec ID/Info                            : UTF-8 Plain Text
  314. Duration                                 : 1 h 46 min
  315. Bit rate                                 : 32 b/s
  316. Count of elements                        : 962
  317. Stream size                              : 25.6 KiB (0%)
  318. Title                                    : Dutch
  319. Language                                 : Dutch
  320. Default                                  : No
  321. Forced                                   : No
  322. Text #22
  323. ID                                       : 24
  324. Format                                   : UTF-8
  325. Codec ID                                 : S_TEXT/UTF8
  326. Codec ID/Info                            : UTF-8 Plain Text
  327. Duration                                 : 1 h 46 min
  328. Bit rate                                 : 33 b/s
  329. Count of elements                        : 986
  330. Stream size                              : 25.7 KiB (0%)
  331. Title                                    : Norwegian Bokmal
  332. Language                                 : Norwegian Bokmal
  333. Default                                  : No
  334. Forced                                   : No
  335. Text #23
  336. ID                                       : 25
  337. Format                                   : UTF-8
  338. Codec ID                                 : S_TEXT/UTF8
  339. Codec ID/Info                            : UTF-8 Plain Text
  340. Duration                                 : 1 h 46 min
  341. Bit rate                                 : 30 b/s
  342. Count of elements                        : 983
  343. Stream size                              : 23.6 KiB (0%)
  344. Title                                    : Polish
  345. Language                                 : Polish
  346. Default                                  : No
  347. Forced                                   : No
  348. Text #24
  349. ID                                       : 26
  350. Format                                   : UTF-8
  351. Codec ID                                 : S_TEXT/UTF8
  352. Codec ID/Info                            : UTF-8 Plain Text
  353. Duration                                 : 1 h 46 min
  354. Bit rate                                 : 35 b/s
  355. Count of elements                        : 990
  356. Stream size                              : 27.5 KiB (0%)
  357. Title                                    : Portuguese
  358. Language                                 : Portuguese
  359. Default                                  : No
  360. Forced                                   : No
  361. Text #25
  362. ID                                       : 27
  363. Format                                   : UTF-8
  364. Codec ID                                 : S_TEXT/UTF8
  365. Codec ID/Info                            : UTF-8 Plain Text
  366. Duration                                 : 1 h 46 min
  367. Bit rate                                 : 40 b/s
  368. Count of elements                        : 989
  369. Stream size                              : 31.8 KiB (0%)
  370. Title                                    : Romanian
  371. Language                                 : Romanian
  372. Default                                  : No
  373. Forced                                   : No
  374. Text #26
  375. ID                                       : 28
  376. Format                                   : UTF-8
  377. Codec ID                                 : S_TEXT/UTF8
  378. Codec ID/Info                            : UTF-8 Plain Text
  379. Duration                                 : 1 h 46 min
  380. Bit rate                                 : 58 b/s
  381. Count of elements                        : 989
  382. Stream size                              : 45.4 KiB (0%)
  383. Title                                    : Russian
  384. Language                                 : Russian
  385. Default                                  : No
  386. Forced                                   : No
  387. Text #27
  388. ID                                       : 29
  389. Format                                   : UTF-8
  390. Codec ID                                 : S_TEXT/UTF8
  391. Codec ID/Info                            : UTF-8 Plain Text
  392. Duration                                 : 1 h 46 min
  393. Bit rate                                 : 35 b/s
  394. Count of elements                        : 991
  395. Stream size                              : 27.6 KiB (0%)
  396. Title                                    : Spanish
  397. Language                                 : Spanish
  398. Default                                  : No
  399. Forced                                   : No
  400. Text #28
  401. ID                                       : 30
  402. Format                                   : UTF-8
  403. Codec ID                                 : S_TEXT/UTF8
  404. Codec ID/Info                            : UTF-8 Plain Text
  405. Duration                                 : 1 h 46 min
  406. Bit rate                                 : 33 b/s
  407. Count of elements                        : 983
  408. Stream size                              : 26.1 KiB (0%)
  409. Title                                    : Swedish
  410. Language                                 : Swedish
  411. Default                                  : No
  412. Forced                                   : No
  413. Text #29
  414. ID                                       : 31
  415. Format                                   : UTF-8
  416. Codec ID                                 : S_TEXT/UTF8
  417. Codec ID/Info                            : UTF-8 Plain Text
  418. Duration                                 : 1 h 46 min
  419. Bit rate                                 : 87 b/s
  420. Count of elements                        : 991
  421. Stream size                              : 68.0 KiB (0%)
  422. Title                                    : Thai
  423. Language                                 : Thai
  424. Default                                  : No
  425. Forced                                   : No
  426. Text #30
  427. ID                                       : 32
  428. Format                                   : UTF-8
  429. Codec ID                                 : S_TEXT/UTF8
  430. Codec ID/Info                            : UTF-8 Plain Text
  431. Duration                                 : 1 h 46 min
  432. Bit rate                                 : 35 b/s
  433. Count of elements                        : 989
  434. Stream size                              : 27.5 KiB (0%)
  435. Title                                    : Turkish
  436. Language                                 : Turkish
  437. Default                                  : No
  438. Forced                                   : No
  439. Text #31
  440. ID                                       : 33
  441. Format                                   : UTF-8
  442. Codec ID                                 : S_TEXT/UTF8
  443. Codec ID/Info                            : UTF-8 Plain Text
  444. Duration                                 : 1 h 46 min
  445. Bit rate                                 : 49 b/s
  446. Count of elements                        : 990
  447. Stream size                              : 38.8 KiB (0%)
  448. Title                                    : Vietnamese
  449. Language                                 : Vietnamese
  450. Default                                  : No
  451. Forced                                   : No
  452. Text #32
  453. ID                                       : 34
  454. Format                                   : UTF-8
  455. Codec ID                                 : S_TEXT/UTF8
  456. Codec ID/Info                            : UTF-8 Plain Text
  457. Duration                                 : 1 h 46 min
  458. Bit rate                                 : 38 b/s
  459. Count of elements                        : 991
  460. Stream size                              : 30.2 KiB (0%)
  461. Title                                    : Chinese Simplified
  462. Language                                 : Chinese
  463. Default                                  : No
  464. Forced                                   : No
  465. Text #33
  466. ID                                       : 35
  467. Format                                   : UTF-8
  468. Codec ID                                 : S_TEXT/UTF8
  469. Codec ID/Info                            : UTF-8 Plain Text
  470. Duration                                 : 1 h 46 min
  471. Bit rate                                 : 37 b/s
  472. Count of elements                        : 992
  473. Stream size                              : 29.0 KiB (0%)
  474. Title                                    : Chinese Traditional
  475. Language                                 : Chinese
  476. Default                                  : No
  477. Forced                                   : No
复制代码






                                       
                                       

                                       
                                       
                                       




回复

使用道具 举报

懒得打字嘛,点击右侧快捷回复 【右侧内容,后台自定义】
您需要登录后才可以回帖 登录 | 立即加入

本版积分规则

Archiver|小黑屋| 蓝光电影网 |网站地图

Copyright © 2021 Comsenz Inc. Powered by 蓝光电影网

蓝光电影网

本站内容由用户自主分享和转载自互联网,转载目的在于传递更多信息,并不代表本网赞同其观点和对其真实性负责。

如有侵权、违反国家法律政策行为,请联系我们,我们会第一时间及时清除和处理!

举报反馈邮箱:[email protected]

快速回复 返回顶部 返回列表