找回密码

蓝光电影网

查看: 19|回复: 0

[剧情] LX 2048 LX.2048.2020.1080p.AMZN.WEBRip.DDP5.1.x264-TOMMY 3.93GB

[复制链接]
蓝光币
511
发表于 2021-8-20 01:20:02 | 显示全部楼层 |阅读模式


◎译  名 001LithiumX
◎片  名 LX 2048
◎年  代 2020
◎产  地 美国,立陶宛
◎类  别 剧情 / 科幻
◎语  言 英语
◎上映日期 2020-09-25(美国)
◎IMDb评分  4.7/10 from 391 users
◎IMDb链接  https://www.imdb.com/title/tt7400998/
◎豆瓣评分 /10 from 0 users
◎豆瓣链接 https://movie.douban.com/subject/35198033/
◎主  演 詹姆斯·达西 James D'Arcy
       吉娜·麦基 Gina McKee
       德尔罗伊·林多 Delroy Lindo
       安娜·布雷维斯特 Anna Brewster
       朱丽叶特·奥布瑞 Juliet Aubrey
       杰.海登 Jay Hayden
       林克·汉德 Linc Hand
◎标  签 科幻 | 2020 | 美国 | 线上 | 科幻奇异 | 电影
◎简  介


  故事报告在未几的未来,太阳已经变得有毒,人们没法在白天分开家,一般的生活大多在虚拟情况中停止。 在这类反乌托邦布景下,一个病笃的人追求确保家人的未来幸运,同时应对在这个新现实中成为人的意义。
  1. Video
  2. ID                                       : 1
  3. Format                                   : AVC
  4. Format/Info                              : Advanced Video Codec
  5. Format profile                           : [email protected]
  6. Format settings                          : CABAC / 4 Ref Frames
  7. Format settings, CABAC                   : Yes
  8. Format settings, Reference frames        : 4 frames
  9. Codec ID                                 : V_MPEG4/ISO/AVC
  10. Duration                                 : 1 h 43 min
  11. Bit rate mode                            : Constant
  12. Bit rate                                 : 4 780 kb/s
  13. Nominal bit rate                         : 10 000 kb/s
  14. Width                                    : 1 920 pixels
  15. Height                                   : 800 pixels
  16. Display aspect ratio                     : 2.40:1
  17. Frame rate mode                          : Constant
  18. Frame rate                               : 23.976 (24000/1001/189150) FPS
  19. Color space                              : YUV
  20. Chroma subsampling                       : 4:2:0
  21. Bit depth                                : 8 bits
  22. Scan type                                : Progressive
  23. Bits/(Pixel*Frame)                       : 0.130
  24. Stream size                              : 3.46 GiB (88%)
  25. Default                                  : Yes
  26. Forced                                   : No
  27. Color range                              : Limited
  28. Color primaries                          : BT.709
  29. Transfer characteristics                 : BT.709
  30. Matrix coefficients                      : BT.709
  31. Audio
  32. ID                                       : 2
  33. Format                                   : E-AC-3
  34. Format/Info                              : Enhanced AC-3
  35. Commercial name                          : Dolby Digital Plus
  36. Codec ID                                 : A_EAC3
  37. Duration                                 : 1 h 43 min
  38. Bit rate mode                            : Constant
  39. Bit rate                                 : 640 kb/s
  40. Channel(s)                               : 6 channels
  41. Channel layout                           : L R C LFE Ls Rs
  42. Sampling rate                            : 48.0 kHz
  43. Frame rate                               : 31.250 FPS (1536 SPF)
  44. Compression mode                         : Lossy
  45. Stream size                              : 475 MiB (12%)
  46. Language                                 : English
  47. Service kind                             : Complete Main
  48. Default                                  : Yes
  49. Forced                                   : No
  50. Text
  51. ID                                       : 3
  52. Format                                   : UTF-8
  53. Codec ID                                 : S_TEXT/UTF8
  54. Codec ID/Info                            : UTF-8 Plain Text
  55. Duration                                 : 1 h 43 min
  56. Bit rate                                 : 71 b/s
  57. Count of elements                        : 1846
  58. Stream size                              : 54.0 KiB (0%)
  59. Title                                    : English (SDH)
  60. Language                                 : English
  61. Default                                  : No
  62. Forced                                   : No
复制代码






                                       
                                       

                                       
                                       
                                       




回复

使用道具 举报

懒得打字嘛,点击右侧快捷回复 【右侧内容,后台自定义】
您需要登录后才可以回帖 登录 | 立即加入

本版积分规则

Archiver|小黑屋| 蓝光电影网 |网站地图

Copyright © 2021 Comsenz Inc. Powered by 蓝光电影网

蓝光电影网

本站内容由用户自主分享和转载自互联网,转载目的在于传递更多信息,并不代表本网赞同其观点和对其真实性负责。

如有侵权、违反国家法律政策行为,请联系我们,我们会第一时间及时清除和处理!

举报反馈邮箱:[email protected]

快速回复 返回顶部 返回列表