找回密码

蓝光电影网

查看: 25|回复: 0

[剧情] 消逝于黑暗中/褪到黑 Fade.to.Black.1980.1080p.AMZN.WEBRip.DDP2.0.x264-FIZ 6.56GB

[复制链接]
蓝光币
515
发表于 2021-8-20 01:20:05 | 显示全部楼层 |阅读模式


◎译  名 磨灭于黑黑暗/褪到黑/黑场
◎片  名 Fade to Black
◎年  代 1980
◎产  地 美国
◎类  别 剧情 / 笑剧 / 恋爱 / 惊悚 / 可骇 / 历史
◎语  言 英语
◎上映日期 1980-10-14
◎IMDb评分  5.9/10 from 2888 users
◎IMDb链接  https://www.imdb.com/title/tt0080711/
◎豆瓣评分 6.4/10 from 82 users
◎豆瓣链接 https://movie.douban.com/subject/3242038/
◎片  长 102 分钟
◎导  演 Vernon Zimmerman
◎编  剧 Vernon Zimmerman
◎主  演 丹尼斯·克里斯托弗 Dennis Christopher
       蒂姆·汤默逊 Tim Thomerson
       格温·基尔福德 Gwynne Gilford
       Norman Burton
       Linda Kerridge
       摩根·保罗 Morgan Paull
       詹姆斯·路易西 James Luisi
       伊芙·布伦特 Eve Brent
       John Steadman
       米基·洛克 Mickey Rourke
       彼得·霍顿 Peter Horton
       Melinda O. Fee
       泰迪·西多尔 Teddi Siddall
       詹姆斯·卡格尼 James Cagney
       凯西·格里芬 Kathy Griffin
       克里斯托弗·李 Christopher Lee
       弗吉尼亚·梅奥 Virginia Mayo
       Gary Howe Scott
       米斯·斯马尔 Mews Small
       Robert Stahoviak
       理查德·威德马克 Richard Widmark
◎标  签 美国 | 惊悚 | 可骇 | cult | 1980 | 美国电影 | 电影 | 笑剧
◎简  介


  一个忸怩、孤独但对电影梦怀有执念的电影怪人,模仿典范老电影中的犯罪桥段,起头对那些欺侮和威胁他的人停止疯狂的报复。
  1. Video
  2. ID                                       : 1
  3. Format                                   : AVC
  4. Format/Info                              : Advanced Video Codec
  5. Format profile                           : [email protected]
  6. Format settings                          : CABAC / 4 Ref Frames
  7. Format settings, CABAC                   : Yes
  8. Format settings, Reference frames        : 4 frames
  9. Codec ID                                 : V_MPEG4/ISO/AVC
  10. Duration                                 : 1 h 41 min
  11. Bit rate                                 : 8 989 kb/s
  12. Width                                    : 1 920 pixels
  13. Height                                   : 1 080 pixels
  14. Display aspect ratio                     : 16:9
  15. Frame rate mode                          : Constant
  16. Frame rate                               : 24.000 FPS
  17. Color space                              : YUV
  18. Chroma subsampling                       : 4:2:0
  19. Bit depth                                : 8 bits
  20. Scan type                                : Progressive
  21. Bits/(Pixel*Frame)                       : 0.181
  22. Stream size                              : 6.40 GiB (98%)
  23. Language                                 : English
  24. Default                                  : Yes
  25. Forced                                   : No
  26. Color range                              : Limited
  27. Color primaries                          : BT.709
  28. Transfer characteristics                 : BT.709
  29. Matrix coefficients                      : BT.709
  30. Audio
  31. ID                                       : 2
  32. Format                                   : E-AC-3
  33. Format/Info                              : Enhanced AC-3
  34. Commercial name                          : Dolby Digital Plus
  35. Codec ID                                 : A_EAC3
  36. Duration                                 : 1 h 41 min
  37. Bit rate mode                            : Constant
  38. Bit rate                                 : 224 kb/s
  39. Channel(s)                               : 2 channels
  40. Channel layout                           : L R
  41. Sampling rate                            : 48.0 kHz
  42. Frame rate                               : 31.250 FPS (1536 SPF)
  43. Compression mode                         : Lossy
  44. Stream size                              : 163 MiB (2%)
  45. Language                                 : English
  46. Service kind                             : Complete Main
  47. Default                                  : Yes
  48. Forced                                   : No
  49. Text
  50. ID                                       : 3
  51. Format                                   : UTF-8
  52. Codec ID                                 : S_TEXT/UTF8
  53. Codec ID/Info                            : UTF-8 Plain Text
  54. Duration                                 : 1 h 41 min
  55. Bit rate                                 : 52 b/s
  56. Count of elements                        : 1508
  57. Stream size                              : 39.2 KiB (0%)
  58. Language                                 : English
  59. Default                                  : Yes
  60. Forced                                   : No
复制代码






                                       
                                       

                                       
                                       
                                       




回复

使用道具 举报

懒得打字嘛,点击右侧快捷回复 【右侧内容,后台自定义】
您需要登录后才可以回帖 登录 | 立即加入

本版积分规则

Archiver|小黑屋| 蓝光电影网 |网站地图

Copyright © 2021 Comsenz Inc. Powered by 蓝光电影网

蓝光电影网

本站内容由用户自主分享和转载自互联网,转载目的在于传递更多信息,并不代表本网赞同其观点和对其真实性负责。

如有侵权、违反国家法律政策行为,请联系我们,我们会第一时间及时清除和处理!

举报反馈邮箱:[email protected]

快速回复 返回顶部 返回列表